Welcome Guest ( Log In | Register )

> Suicidal Ideation - Dawn Inside [single] (2018), Black Metal
post Nov 18 2018, 16:15:14
Post #1

Правь статус, ####!111
**************
Group: Металариец
Posts: 3,965
Releases: 3623
From: Одесса
On Forums: 12 years 11 months
Thanks: 38880 time(s)
Ukraine


(IMG:http://metalarea.org/images/audiocovers/2018_Nov/acov_tid313158_thumb.jpg)

*Artist: Suicidal Ideation
*Album: Dawn Inside [single]
*Year: 2018
*Genre: Black Metal
*Country: Japan (IMG:http://metalarea.org/forum/style_images/flags/Japan.png)
*Format: mp3@CBR320kbps
*Size: 35MB

Tracklist:
1. Dawn Inside 07:24
2. Naught Ideal 07:19
******************************
Total playing time: 14:43



Extended info
Line - up:

Kaede - All instruments, Programming, Vocals

(IMG:https://www.metal-archives.com/images/3/5/4/0/3540443699_photo.jpg?1420)


Technical info
(IMG:http://metalarea.org/images/spectrogram/2018_Nov/c79977a15ec4a02ac94b1434de6c3fa2.png)
Input File: 02. Naught ideal.mp3
Channels : 2
Sample Rate : 48000
Precision : 16-bit
Duration : 00:07:19.56 = 21099024 samples ~ 32967.2 CDDA sectors
File Size : 17.6M
Bit Rate : 320k
Sample Encoding: MPEG audio (layer I, II or III)
Comments :
Title=Naught ideal
Artist=suicidal ideation
Album=Dawn inside (Single)
Tracknumber=2
Year=2018
Genre=138



Register


Go to the top of the page
  Insert nick Quick quote
+Quote Post
 
Start new topic
Replies (1 - 1)
post May 4 2021, 20:46:22
Post #2

Два Литра
**
Group: Завсегдатай
Posts: 129
Releases: 0
On Forums: 5 years 8 months
Thanks: 140 time(s)
Palau


Register
Go to the top of the page
  Insert nick Quick quote
+Quote Post

Reply to this topicStart new topic
2 User(s) are reading this topic (2 Guests and 0 Anonymous Users)
0 Members:

 



- Lo-Fi Version Support form
Copyrights and abuse reports form
Time is now: 18th May 2021 - 02:41:08