Welcome Guest ( Log In | Register )

> Six Foot Six - The Six Foot Six Project (2018), Melodic Heavy/Power Metal
post Nov 20 2018, 06:13:11
Post #1

Аннигилятор пивА
Group Icon
Group: V.I.P
Posts: 52,360
Releases: 16550
From: Koenigsberg - TILZIT
On Forums: 15 years 3 weeks
Thanks: 367715 time(s)
Russian Federation


(IMG:https://metalarea.org/images/audiocovers/2018_Nov/acov_tid313217_thumb.jpg)

*Artist: Six Foot Six
*Album: The Six Foot Six Project
*Year: 2018
*Genre: Melodic Heavy/Power Metal
*Country: Sweden (IMG:https://metalarea.org/forum/style_images/flags/Sweden.png)
*Format: mp3@CBR320kbps
*Size: 87MB

Tracklist:
01. Virus Inside
02. Bleed for Mankind
03. Falling Sparrow
04. Frozen in Time
05. Pride and Glory
06. Anomia
07. Test of Time
08. In Defiance
09. From the Ground
10. Ephemeral
******************************
Total playing time: 41:05

Extended info
Kristoffer Göbel – Vocals, Guitar (Falconer, Destiny)
Anders Kiel – Guitar, Backing Vocals
Markus Gustafsson – Bass
Henrik Hedman – Drums (Vindictiv, Last Kingdom, Celestial Decay)
Christoffer Borg – Guitar (Evergrey)



Technical info
(IMG:https://metalarea.org/images/spectrogram/2018_Nov/1a15ea77981a084d010cb3b0e7180015.png)
Input File: 06. Anomia.mp3
Channels : 2
Sample Rate : 44100
Precision : 16-bit
Duration : 00:03:50.08 = 10146352 samples = 17255.7 CDDA sectors
File Size : 9.30M
Bit Rate : 323k
Sample Encoding: MPEG audio (layer I, II or III)
Comments :
Title=Anomia
Artist=Six Foot Six
Album=The Six Foot Six Project
Tracknumber=6
Year=2018
Discnumber=1



Register


Go to the top of the page
  Insert nick Quick quote
+Quote Post
 
Start new topic
Replies (1 - 3)
post Nov 20 2018, 17:54:58
Post #2

Аннигилятор пивА
Group Icon
Group: V.I.P
Posts: 52,360
Releases: 16550
From: Koenigsberg - TILZIT
On Forums: 15 years 3 weeks
Thanks: 367715 time(s)
Russian Federation


mirror
Register


Thanks:
Go to the top of the page
  Insert nick Quick quote
+Quote Post
post Nov 23 2018, 18:14:46
Post #3

Два Литра
**
Group: Завсегдатай
Posts: 154
Releases: 0
On Forums: 13 years 5 months
Thanks: 19 time(s)
Russian Federation


Ребята, очень рекомендую послушать. Просто бальзам на душу. Такой без вые...ов в виде дудок-скрипок-аккордеонов heavy-power, приятный вокал, классный звук. При прослушке думал, что вот, просто идеальный альбом без соплей в виде баллад, ан нет, всё-таки последняя оказалась балладой... Ну да ладно.)


Thanks:
(1) MeatWolf,
Go to the top of the page
  Insert nick Quick quote
+Quote Post
post Nov 26 2018, 19:47:38
Post #4

Два Литра
**
Group: Завсегдатай
Posts: 154
Releases: 0
On Forums: 13 years 5 months
Thanks: 19 time(s)
Russian Federation


https://www.youtube.com/watch?v=_2regvhRjxg
Go to the top of the page
  Insert nick Quick quote
+Quote Post

Reply to this topicStart new topic
2 User(s) are reading this topic (2 Guests and 0 Anonymous Users)
0 Members:

 



- Lo-Fi Version Support form
Copyrights and abuse reports form
Time is now: 22nd June 2021 - 02:32:42