Welcome Guest ( Log In | Register )

> Ypokosmos - Secrets Of The Pulse [ep] (2018), Black/Death Metal
post Nov 24 2018, 09:56:30
Post #1

Правь статус, ####!111
**************
Group: Металариец
Posts: 2,255
Releases: 1810
From: Praha
On Forums: 7 years 1 month
Thanks: 47720 time(s)
Czech Republic


(IMG:http://metalarea.org/images/audiocovers/2018_Nov/acov_tid313378_thumb.jpg)

*Artist: Ypokosmos
*Album: Secrets Of The Pulse [ep]
*Year: 2018
*Genre: Black/Death Metal
*Country: Germany (IMG:http://metalarea.org/forum/style_images/flags/Germany.png)
*Format: mp3@CBR320kbps
*Size: 46MB

Tracklist:
1. Interlude / Shivering Pulse of an Infinite Eon 05:00
2. Slumber of the Archivist 03:29
3. Interlude / Synod Metacarnal 05:46
4. The Secret 04:37
******************************
Total playing time: 18:52

Extended info
Iron Bonehead Productions


Technical info
(IMG:http://metalarea.org/images/spectrogram/2018_Nov/7d76068b24c470dff42e99081e65a1a5.png)
Input File: 02. Slumber of the Archivist.mp3
Channels : 2
Sample Rate : 44100
Precision : 16-bit
Duration : 00:03:29.31 = 9230439 samples = 15698 CDDA sectors
File Size : 8.68M
Bit Rate : 332k
Sample Encoding: MPEG audio (layer I, II or III)
Comments :
Title=Slumber of the Archivist
Artist=Ypokosmos
Album=Secrets of the Pulse
Tracknumber=02/04
Year=2018
Genre=Black / Death Metal



Register


Go to the top of the page
  Insert nick Quick quote
+Quote Post
 
Start new topic
Replies (1 - 1)
post May 4 2021, 16:32:27
Post #2

Правь статус, ####!111
**************
Group: Металариец
Posts: 4,591
Releases: 276
From: MoscoW
On Forums: 14 years 5 months
Thanks: 5178 time(s)
Russian Federation


IRON BONEHEAD Productions:


Thanks:
(1) Sanctus,
Go to the top of the page
  Insert nick Quick quote
+Quote Post

Reply to this topicStart new topic
1 User(s) are reading this topic (1 Guests and 0 Anonymous Users)
0 Members:

 



- Lo-Fi Version Support form
Copyrights and abuse reports form
Time is now: 16th May 2021 - 19:00:21