Welcome Guest ( Log In | Register )

> Our Days In Oblivion - Psychoparasite (2018), Thrash Metal
post Nov 27 2018, 02:45:36
Post #1

Serial Uploader
Group Icon
Group: V.I.P
Posts: 37,136
Releases: 35320
From: Lithuania
On Forums: 11 years 11 months
Thanks: 419629 time(s)
Lithuania


(IMG:http://metalarea.org/images/audiocovers/2018_Nov/acov_tid313480_thumb.jpg)

*Artist: Our Days In Oblivion
*Album: Psychoparasite
*Year: 2018
*Genre: Thrash Metal
*Country: Spain (IMG:http://metalarea.org/forum/style_images/flags/Spain.png)
*Format: mp3@CBR320kbps
*Size: 108MB

Tracklist:
01. My Days in Oblivion
02. ...And She Became My Pill
03. Psychoparasite
04. Breath as I'm Not Here
05. Eclectocompulsive Therapy
06. Without Conscious Crew
07. The Sweet Art of Manipulation
08. Extreme Menthal Brush
09. Prepared for Asystole
10. Part-Time Empathy
11. From Nowhere to Northern Way
******************************
Total playing time: 47:01



Technical info
(IMG:http://metalarea.org/images/spectrogram/2018_Nov/5b89bfd2a106629f77f36437a95e012e.png)
Input File: 02. ...And She Became My Pill.mp3
Channels : 2
Sample Rate : 44100
Precision : 16-bit
Duration : 00:05:52.44 = 15542604 samples = 26433 CDDA sectors
File Size : 14.1M
Bit Rate : 321k
Sample Encoding: MPEG audio (layer I, II or III)
Comments :
Title=...And She Became My Pill
Artist=O.D.I.O (Our Days in Oblivion)
Album=Psychoparasite
Tracknumber=2/11
Year=2018



Register


Go to the top of the page
  Insert nick Quick quote
+Quote Post
 
Start new topic
Replies (1 - 4)
post Nov 27 2018, 07:05:16
Post #2

Три Литра
***
Group: Завсегдатай
Posts: 273
Releases: 0
From: Россия
On Forums: 8 years 3 months
Thanks: 90 time(s)
Russian Federation


Жанр:Groove metal

https://www.metal-archives.com/bands/O.D.I.O/3540398624


Thanks:
(1) Diflock,
Go to the top of the page
  Insert nick Quick quote
+Quote Post
post Nov 27 2018, 08:30:36
Post #3

hearer & reader
**************
Group: Металариец
Posts: 8,710
Releases: 140
From: Moscow
On Forums: 12 years 8 months
Thanks: 8748 time(s)
Russian Federation



По мне, кроссовер и не без хардкора.

Дебют - O.D.I.O (Our Days In Oblivion) - The Mourner (2015)


Thanks:
Go to the top of the page
  Insert nick Quick quote
+Quote Post
post Nov 27 2018, 15:58:33
Post #4

Каратель
*****
Group: Металариец
Posts: 418
Releases: 0
From: Przemysl
On Forums: 5 years 5 months
Thanks: 311 time(s)
Poland


ЦИТАТА
*Genre: Thrash Metal
(IMG:style_emoticons/default/normal_Homerdisgust3s.png)
Go to the top of the page
  Insert nick Quick quote
+Quote Post
post Nov 27 2018, 18:40:11
Post #5

MDM-Thrash Metal
**************
Group: Металариец
Posts: 9,539
Releases: 866
From: Одесса
On Forums: 12 years 9 months
Thanks: 22697 time(s)
Ukraine


- All 11 Tracks
Go to the top of the page
  Insert nick Quick quote
+Quote Post

Reply to this topicStart new topic
2 User(s) are reading this topic (2 Guests and 0 Anonymous Users)
0 Members:

 



- Lo-Fi Version Support form
Copyrights and abuse reports form
Time is now: 5th June 2020 - 19:31:48