Welcome Guest ( Log In | Register )

Объявления

* gmail.com упорно продолжает считать почту с нас "unsolicited" и отбивает в том числе и письма активации, поэтому просьба использовать альтернативные почтовые ящики.
------------
* gmail.com continues reject all mail from us as "unsolicited" (activation mails too) therefore please use alternate mail servers.
> Frosttide - Decedents - Enshrined [ep] (2018), Melodic Death/Folk Metal (D7)
post Nov 29 2018, 12:59:35
Post #1

Правь статус, ####!111
**************
Group: Металариец
Posts: 56,266
Releases: 1223
On Forums: 15 years 1 month
Thanks: 55302 time(s)
Russian Federation


(IMG:http://metalarea.org/images/audiocovers/2018_Nov/acov_tid313536_thumb.jpg)

*Artist: Frosttide
*Album: Decedents - Enshrined [ep]
*Year: 2018
*Genre: Melodic Death/Folk Metal
*Country: Finland (IMG:http://metalarea.org/forum/style_images/flags/Finland.png)
*Format: mp3@CBR320kbps
*Size: 123MB

Tracklist:
1. Ocean's Peace
2. Tranquility
3. Carved into Ice
4. Final Hour
5. Revenant
6. Ocean's Peace (Instrumental)
7. Tranquility (Instrumental)
8. Carved Into Ice (Instrumental)
9. Final Hour (Instrumental)
10. Revenant (Instrumental)
******************************
Total playing time: 52:44

Technical info
(IMG:http://metalarea.org/images/spectrogram/2018_Nov/daee431887d2edf7d226f30eeb2d764d.png)
Input File: 01. Ocean\'s Peace.mp3
Channels : 2
Sample Rate : 44100
Precision : 16-bit
Duration : 00:01:59.96 = 5290236 samples = 8997 CDDA sectors
File Size : 5.07M
Bit Rate : 338k
Sample Encoding: MPEG audio (layer I, II or III)
Comments :
Title=Ocean's Peace
Artist=Frosttide
Album=Decedents - Enshrined
Tracknumber=1/10
Year=2018
Discnumber=1/1



Register


Go to the top of the page
  Insert nick Quick quote
+Quote Post
 
Start new topic
Replies (1 - 4)
post Nov 29 2018, 13:24:23
Post #2

Правь статус, ####!111
**************
Group: Металариец
Posts: 56,266
Releases: 1223
On Forums: 15 years 1 month
Thanks: 55302 time(s)
Russian Federation


@320

Register


Go to the top of the page
  Insert nick Quick quote
+Quote Post
post Nov 29 2018, 14:21:51
Post #3

Шесть Литров
******
Group: Металариец
Posts: 591
Releases: 26
On Forums: 15 years 1 month
Thanks: 579 time(s)
Chile


Thanks (IMG:style_emoticons/default/dwarf-1.gif)


Thanks:
Go to the top of the page
  Insert nick Quick quote
+Quote Post
post Nov 30 2018, 21:41:53
Post #4

MDM-Thrash Metal
**************
Group: Металариец
Posts: 12,524
Releases: 1748
From: Одесса
On Forums: 16 years 11 months
Thanks: 40576 time(s)
Ukraine


Красиво!
Go to the top of the page
  Insert nick Quick quote
+Quote Post
post Dec 1 2018, 13:13:48
Post #5

hearer & reader
**************
Group: Металариец
Posts: 10,944
Releases: 234
From: Moscow
On Forums: 16 years 10 months
Thanks: 13709 time(s)
Russian Federation


А этот фортель называется "повтор"
Frosttide - Decedents [ep] (2018)
На караоке не купимся


Thanks:
(1) avather,
Go to the top of the page
  Insert nick Quick quote
+Quote Post

Reply to this topicStart new topic
2 User(s) are reading this topic (2 Guests and 0 Anonymous Users)
0 Members:

 



- Lo-Fi Version Support form
Copyrights and abuse reports form
Time is now: 15th July 2024 - 21:04:53