Welcome Guest ( Log In | Register )

> Bloodlines - Bloodlines (2014), Stoner/Heavy Metal
post Dec 2 2018, 10:33:03
Post #1

Крещенный в алкоголе
***********
Group: Металариец
Posts: 1,587
Releases: 30
From: Sea of darkness
On Forums: 14 years 9 months
Thanks: 712 time(s)
Israel


(IMG:http://metalarea.org/images/audiocovers/2018_Dec/acov_tid313651_thumb.jpg)

*Artist: Bloodlines
*Album: Bloodlines
*Year: 2014
*Genre: Stoner/Heavy Metal
*Country: Unknown (IMG:http://metalarea.org/forum/style_images/flags/Unknown.png)
*Format: mp3@CBR320kbps
*Size: 74MB

Tracklist:
1.Now You're Gone 3:33
2.Standing On the Circle 3:19
3.Judged 3:55
4.Reason 4:50
5.What's the Meaning 4:56
6.Life is Too Short 3:57
7.Shut Me Out 3:13
8.Headspin 4:16
******************************
Total playing time: 31:59

Extended info
Хотите жуткую историю ?
Этот альбом пропал со всего интернета, включая рутракер (откуда я его, собственно, и взял), и даже metal-archives(!). Не знаю, кто к этому причастен, но принимая во внимание обложку, мне даже становится как то стремновато за своё существование. Но тем не менее, не могу не поделиться, поскольку банда очень хорошая.
По сути, здесь довольно легкий (но не попсовый!) хеви метал с уклоном в "интеллигентный" стоунер, без ганджубаса, хиппарей, дыма и сатан сатанычей.
Вокал мне больше всего напомнил Дикинсона и еще кого то, не вспомнил, кого.
Довольно заводной, ненавязчивый и порою очень хитовый материал, при этом отлично записанный. Завершительная Headspin сходу покорила меня своим пружинящим грувом и искрометным соляком.

Короче, пацаны: качайте, пока я еще живой и пока за мной и за этим релизом не пришли парни с облоги. Оно того стоит, беспесды.

P.S: А если кому не влом, то перезалейте на более стабильный обменник, какой там у вас в СНГ нормально работает.


Technical info
(IMG:http://metalarea.org/images/spectrogram/2018_Dec/99cef04d468a9c4bdb14d9768cad3304.png)
Input File: 01 - Now You\'re Gone.mp3
Channels : 2
Sample Rate : 44100
Precision : 16-bit
Duration : 00:03:33.90 = 9432858 samples = 16042.3 CDDA sectors
File Size : 8.63M
Bit Rate : 323k
Sample Encoding: MPEG audio (layer I, II or III)
Comments :
Title=Now You're Gone
Artist=Bloodlines
Album=Bloodlines
Tracknumber=1
Year=2014
Genre=Rock



Register


Go to the top of the page
  Insert nick Quick quote
+Quote Post
 
Start new topic
Replies (1 - 3)
post Dec 4 2018, 18:55:23
Post #2
BAN
Banned till
Jul 16 2020, 15:35:27



Вот же капец - скачанный архив исчез со всех мест, где я его разместил - с компа, планшета, телефона, ноута, флэшки. Я начал замечать в зеркалах странные тени по вечерам (IMG:style_emoticons/default/fear.gif)
Go to the top of the page
  Insert nick Quick quote
+Quote Post
post Dec 4 2018, 19:02:39
Post #3

Правь статус, ####!111
**************
Group: Металариец
Posts: 46,804
Releases: 732
On Forums: 11 years 1 month
Thanks: 39469 time(s)
Russian Federation


Ну дык перекачай, делоф то)
Go to the top of the page
  Insert nick Quick quote
+Quote Post
post Dec 4 2018, 20:31:40
Post #4

Крещенный в алкоголе
***********
Group: Металариец
Posts: 1,587
Releases: 30
From: Sea of darkness
On Forums: 14 years 9 months
Thanks: 712 time(s)
Israel


avather,

Сцук, а я ведь даже вздрогнул (IMG:style_emoticons/default/1488.gif)
Go to the top of the page
  Insert nick Quick quote
+Quote Post

Reply to this topicStart new topic
2 User(s) are reading this topic (2 Guests and 0 Anonymous Users)
0 Members:

 



- Lo-Fi Version Support form
Copyrights and abuse reports form
Time is now: 16th July 2020 - 03:45:46