Welcome Guest ( Log In | Register )

> Tyrant Trooper - Moral Extinction [demo] (1993), Death Metal
post Dec 7 2018, 11:11:47
Post #1

Подвал
**************
Group: Металариец
Posts: 17,180
Releases: 9824
From: Far East (Khabarovsk)
On Forums: 13 years 3 months
Thanks: 113237 time(s)
Russian Federation


(IMG:http://metalarea.org/images/audiocovers/2018_Dec/acov_tid313931_thumb.jpg)

*Artist: Tyrant Trooper
*Album: Moral Extinction [demo]
*Year: 1993
*Genre: Death Metal
*Country: United States (IMG:http://metalarea.org/forum/style_images/flags/United%20States.png)
*Format: mp3@CBR320kbps
*Size: 44MB

Tracklist:
1. Morbid Sacrifice 05:38
2. Unholy Incision 05:15
3. Soon Exhumed 04:37
4. Chopping Block 05:23
******************************
Total playing time: 20:53

(IMG:http://metalarea.org/images/myspace.png)

Extended info
Band from Milldale, Connecticut (ex-Storm Front).
Recorded in July '93 at Brain Police Studios in Connecticut,


Technical info
(IMG:http://metalarea.org/images/spectrogram/2018_Dec/5db64127427db007abef462a343aef36.png)
Input File: 01-Morbid Sacrifice.mp3
Channels : 2
Sample Rate : 44100
Precision : 16-bit
Duration : 00:05:38.10 = 14910078 samples = 25357.3 CDDA sectors
File Size : 13.5M
Bit Rate : 320k
Sample Encoding: MPEG audio (layer I, II or III)
Comments :
Title=Morbid Sacrifice
Artist=Tyrant Trooper (US, CT)
Album=Moral Extinction (Demo)
Tracknumber=01
Year=1993
Genre=Death Metal



Register


Go to the top of the page
  Insert nick Quick quote
+Quote Post
 
Start new topic
Replies (1 - 1)
post Mar 18 2022, 16:40:34
Post #2

Подвал
**************
Group: Металариец
Posts: 17,180
Releases: 9824
From: Far East (Khabarovsk)
On Forums: 13 years 3 months
Thanks: 113237 time(s)
Russian Federation


new link:
Register


Go to the top of the page
  Insert nick Quick quote
+Quote Post

Reply to this topicStart new topic
1 User(s) are reading this topic (1 Guests and 0 Anonymous Users)
0 Members:

 



- Lo-Fi Version Support form
Copyrights and abuse reports form
Time is now: 25th May 2022 - 04:17:51