Welcome Guest ( Log In | Register )

> Naphobia - Mortality Confines [demo] (1991), Death/Thrash Metal
post Dec 8 2018, 07:17:28
Post #1

Подвал
**************
Group: Металариец
Posts: 16,173
Releases: 9271
From: Far East (Khabarovsk)
On Forums: 12 years 5 months
Thanks: 104799 time(s)
Russian Federation


(IMG:http://metalarea.org/images/audiocovers/2018_Dec/acov_tid313987_thumb.jpg)

*Artist: Naphobia
*Album: Mortality Confines [demo]
*Year: 1991
*Genre: Death/Thrash Metal
*Country: United States (IMG:http://metalarea.org/forum/style_images/flags/United%20States.png)
*Format: mp3@CBR128kbps (IMG:http://metalarea.org/images/bit_low.gif)
*Size: 23MB

Tracklist:
1. Mortality Confines 04:57
2. House Of Blood 04:25
3. Lycan Cult 07:08
4. Ruler 04:05
5. One Too Many Times 05:03
******************************
Total playing time: 25:38

(IMG:http://metalarea.org/images/myspace.png)

Extended info
First studio demo by Orlando, Florida's Naphobia.


Technical info
(IMG:http://metalarea.org/images/spectrogram/2018_Dec/9f89560efdf201b69e05bff4dceeb22a.png)
Input File: 01-Mortality Confines.mp3
Channels : 2
Sample Rate : 44100
Precision : 16-bit
Duration : 00:04:57.20 = 13106608 samples = 22290.1 CDDA sectors
File Size : 4.76M
Bit Rate : 128k
Sample Encoding: MPEG audio (layer I, II or III)
Comments :
Title=Mortality Confines
Artist=Naphobia
Album=Mortality Confines
Tracknumber=1
Year=1991
Genre=Death Metal



Register


Go to the top of the page
  Insert nick Quick quote
+Quote Post
 
Start new topic
Replies (1 - 4)
post Oct 25 2020, 18:16:31
Post #2

Пять Литров
*****
Group: Металариец
Posts: 451
Releases: 0
On Forums: 3 years 7 months
Thanks: 79 time(s)
Unknown


Please help re-upload.
Go to the top of the page
  Insert nick Quick quote
+Quote Post
post Oct 30 2020, 01:31:17
Post #3

Шесть Литров
******
Group: Металариец
Posts: 585
Releases: 4
On Forums: 7 years 11 months
Thanks: 611 time(s)
Spain


Register


Thanks:
Go to the top of the page
  Insert nick Quick quote
+Quote Post
post Nov 23 2020, 10:25:54
Post #4

Два Литра
**
Group: Завсегдатай
Posts: 128
Releases: 0
On Forums: 1 year 3 months
Thanks: 7 time(s)
Unknown


Please Reupload, Cheers
Go to the top of the page
  Insert nick Quick quote
+Quote Post
post Nov 23 2020, 11:11:13
Post #5

Group Icon
Group: S-moderation team
Posts: 21,461
Releases: 1443
From: Zagreb
On Forums: 10 years 4 months
Thanks: 99561 time(s)
Croatia


Register


Go to the top of the page
  Insert nick Quick quote
+Quote Post

Reply to this topicStart new topic
1 User(s) are reading this topic (1 Guests and 0 Anonymous Users)
0 Members:

 



- Lo-Fi Version Support form
Copyrights and abuse reports form
Time is now: 25th July 2021 - 03:45:56