Welcome Guest ( Log In | Register )

> In Obscurity Revealed - Glorious Impurity (2018), Old School Death Metal
post Dec 14 2018, 05:59:02
Post #1

Аннигилятор пивА
Group Icon
Group: V.I.P
Posts: 52,360
Releases: 16550
From: Koenigsberg - TILZIT
On Forums: 14 years 11 months
Thanks: 367534 time(s)
Russian Federation


(IMG:https://metalarea.org/images/audiocovers/2018_Dec/acov_tid314240_thumb.png)

*Artist: In Obscurity Revealed
*Album: Glorious Impurity
*Year: 2018
*Genre: Old School Death Metal
*Country: Mexico (IMG:https://metalarea.org/forum/style_images/flags/Mexico.png)
*Format: mp3@CBR320kbps
*Size: 91MB

Tracklist:
1. Our Crimson Madness
2. Coven Maleficia
3. Dismay
4. Beast And Serpent
5. Thy Temple Fire
6. Congress Cum Rampage
7. Pestilent Breath
8. Abhorrent Coffins
9. Closing Victory
******************************
Total playing time: 36:51



Extended info
I.A. - Guitars See also: Infesticide, Nigrum, ex-Inherited, Open Casket
F.M. - Bass, Vocals (2014-present) See also: ex-Arsonist, ex-Nigrum, ex-Hacavitz, ex-Retroactive Nihilism
E.H. - Drums (2016-present) See also: Ash Nazg Búrz, Raped God 666, Skid Raid, ex-Opus Diaboli
F.C. - Guitars (2017-present) See also: Ash Nazg Búrz, The Abstract, Through Torment, Hacavitz, ex-Escarnium


Technical info
(IMG:https://metalarea.org/images/spectrogram/2018_Dec/c2df3a442cbf98a1249f764e60f9a8d9.png)
Input File: 03 - Dismay.mp3
Channels : 2
Sample Rate : 44100
Precision : 16-bit
Duration : 00:03:20.37 = 8836449 samples = 15028 CDDA sectors
File Size : 8.84M
Bit Rate : 353k
Sample Encoding: MPEG audio (layer I, II or III)
Comments :
Title=Dismay
Artist=In Obscurity Revealed
Album=Glorious Impurity
Tracknumber=3
Year=2018
Genre=Death Metal



Register

Register


Go to the top of the page
  Insert nick Quick quote
+Quote Post
 
Start new topic
Replies (1 - 3)
post Dec 14 2018, 06:11:16
Post #2

Аннигилятор пивА
Group Icon
Group: V.I.P
Posts: 52,360
Releases: 16550
From: Koenigsberg - TILZIT
On Forums: 14 years 11 months
Thanks: 367534 time(s)
Russian Federation


MIRROR
Register





Go to the top of the page
  Insert nick Quick quote
+Quote Post
post May 4 2021, 12:22:31
Post #3

Три Литра
***
Group: Завсегдатай
Posts: 263
Releases: 0
From: Польша
On Forums: 8 years 2 months
Thanks: 152 time(s)
Poland


Can re-up someone?
Go to the top of the page
  Insert nick Quick quote
+Quote Post
post May 6 2021, 05:42:50
Post #4

Group Icon
Group: S-moderation team
Posts: 20,829
Releases: 1443
From: Zagreb
On Forums: 10 years 2 months
Thanks: 95438 time(s)
Croatia


Register


Go to the top of the page
  Insert nick Quick quote
+Quote Post

Reply to this topicStart new topic
1 User(s) are reading this topic (1 Guests and 0 Anonymous Users)
0 Members:

 



- Lo-Fi Version Support form
Copyrights and abuse reports form
Time is now: 16th May 2021 - 20:10:47