Welcome Guest ( Log In | Register )

> 

Здесь релизы с живыми прямыми ссылками на lossless

> Mooncitadel - Moon Calls To Wander... ...The Winter's Majesty [compilation] (2018), Black Metal
post Dec 15 2018, 08:52:41
Post #1

Правь статус, ####!111
**************
Group: Металариец
Posts: 2,250
Releases: 1803
From: Praha
On Forums: 7 years 1 month
Thanks: 47537 time(s)
Czech Republic


(IMG:http://metalarea.org/images/audiocovers/2018_Dec/acov_tid314289_thumb.jpg)

*Artist: Mooncitadel
*Album: Moon Calls To Wander... ...The Winter's Majesty [compilation]
*Year: 2018
*Genre: Black Metal
*Country: Finland (IMG:http://metalarea.org/forum/style_images/flags/Finland.png)
*Format: mp3@CBR320kbps
*Size: 78MB

Tracklist:
1. Moon Calls to Wander the Winter's Majesty 05:48
2. Dance of a Dark Pagan Spell (The Dreaming Equinox) 08:20
3. Dimensional Key as the Sword of Stars 04:09
4. Lord of the Moonrealm 06:03
5. When Thousand Winters Bury My Heart 05:18
6. The Earl of Nightfall 03:32
******************************
Total playing time: 33:10

Extended info
Darker than Black Records - DTB 341
ex-Empire of Tharaphita


Technical info
(IMG:http://metalarea.org/images/spectrogram/2018_Dec/0e2b2c26c231bf8016a9401d6b681256.png)
Input File: 04. Lord Of The Moonrealm.mp3
Channels : 2
Sample Rate : 44100
Precision : 16-bit
Duration : 00:06:19.77 = 16747681 samples = 28482.5 CDDA sectors
File Size : 15.4M
Bit Rate : 324k
Sample Encoding: MPEG audio (layer I, II or III)
Comments :
Title=Lord Of The Moonrealm
Artist=Mooncitadel
Album=Moon Calls To Wander... ...The Winter's Majesty
Tracknumber=04/06
Year=2018
Genre=Black Metal
Discnumber=1/1



Register


Go to the top of the page
  Insert nick Quick quote
+Quote Post
 
Start new topic
Replies (1 - 4)
post Dec 15 2018, 15:32:04
Post #2

the faceless one
Group Icon
Group: S-moderation team
Posts: 9,394
Releases: 1936
On Forums: 12 years 9 months
Thanks: 117584 time(s)
Russian Federation


Обе версии, и дисковая, и виниловая, в одном архиве
Register


Go to the top of the page
  Insert nick Quick quote
+Quote Post
post Dec 15 2018, 15:38:23
Post #3

Правь статус, ####!111
Group Icon
Group: V.I.P
Posts: 4,657
Releases: 318
On Forums: 10 years 3 months
Thanks: 13207 time(s)
Russian Federation


Великолепный проект. Слушаю уже долгое время и надеюсь, что он продолжение запилит именно в рамках Mooncitadel


Go to the top of the page
  Insert nick Quick quote
+Quote Post
post Dec 16 2018, 16:32:22
Post #4

...Only Death Is Real...
**************
Group: Металариец
Posts: 2,941
Releases: 19
On Forums: 10 years 9 months
Thanks: 1951 time(s)
Antarctica


В чём здесь разница между виниловым и цд рипом? (IMG:style_emoticons/default/sirt.gif)
Go to the top of the page
  Insert nick Quick quote
+Quote Post
post May 4 2021, 09:09:41
Post #5

Два Литра
**
Group: Завсегдатай
Posts: 157
Releases: 2
From: г. Нальчик
On Forums: 8 years 5 months
Thanks: 553 time(s)
Russian Federation


Mooncitadel - Moon Calls to Wander... ...The Winter's Majesty (2018), FLAC (tracks), Lossless 218 MB
Register


Thanks:
Go to the top of the page
  Insert nick Quick quote
+Quote Post

Reply to this topicStart new topic
2 User(s) are reading this topic (2 Guests and 0 Anonymous Users)
0 Members:

 



- Lo-Fi Version Support form
Copyrights and abuse reports form
Time is now: 14th May 2021 - 12:20:19