Welcome Guest ( Log In | Register )

> Beaten To Death - Agronomicon (2018), Progressive Death Metal/Grindcore (D4)
post Dec 23 2018, 12:38:34
Post #1

Аннигилятор пивА
Group Icon
Group: V.I.P
Posts: 52,360
Releases: 16550
From: Koenigsberg - TILZIT
On Forums: 15 years 8 months
Thanks: 368842 time(s)
Russian Federation


(IMG:https://metalarea.org/images/audiocovers/2018_Dec/acov_tid314736_thumb.jpg)

*Artist: Beaten To Death
*Album: Agronomicon
*Year: 2018
*Genre: Progressive Death Metal/Grindcore
*Country: Norway (IMG:https://metalarea.org/forum/style_images/flags/Norway.png)
*Format: mp3@CBR320kbps
*Size: 58MB

Tracklist:
01. Grind Korn 01:41
02. Dere er herved oppløst 02:09
03. Catch Twentyfvck 01:49
04. Bjørnstjerne Ibsen 02:00
05. (Intro to the Next Song) 00:58
06. Agronomicon 01:50
07. Gå, snuble, bli liggende 01:47
08. Extremely Run to the Hills 02:01
09. Boy George Michael Bolton 01:32
10. Havregubbens dolk 01:56
11. Livet tar, og livet tar 01:58
12. Eternal Punished Septic 02:19
******************************
Total playing time: 22:00




Extended info
Mika - Bass
Anders - Vocals (ex-Myrkviðr, ex-She Said Destroy)
Christian "Bartender" - Drums (2010-present) See also: Doedsvangr, Grimfist, The Cumshots, Tsjuder, Umoral, ex-Tyrann, Anton Ruud i Terapi, Gothminister, Inglow, ex-Jorn, ex-Sturmgeist, ex-Black Comedy, ex-Big Muff 68, ex-Caliban Allstars, ex-Kion, ex-Krohn & Co, ex-The Caliban Sessions, ex-The Dogs
Martin - Guitars (2010-present) See also: Corrosion, Insense
Tommy - Guitars (2010-present) See also: ex-Syndicate, Corrosion, Insense, ex-The Cumshots, ex-Grimfist, ex-Benea Reach, ex-Big Muff 68, ex-Infidels Forever, ex-The Caliban Sessions




Technical info
(IMG:https://metalarea.org/images/spectrogram/2018_Dec/6620de15c707a02582cb7a25e9173700.png)
Input File: 02 Dere er herved oppløst.mp3
Channels : 2
Sample Rate : 44100
Precision : 16-bit
Duration : 00:02:09.08 = 5692340 samples = 9680.85 CDDA sectors
File Size : 5.82M
Bit Rate : 361k
Sample Encoding: MPEG audio (layer I, II or III)
Comments :
Title=Dere er herved oppløst
Artist=Beaten To Death
Album=Agronomicon
Tracknumber=2/12
Year=2018
Genre=Progressive, Avant-garde Grindcore
Discnumber=1/1



Register


Go to the top of the page
  Insert nick Quick quote
+Quote Post
 
Start new topic
Replies (1 - 5)
post Dec 23 2018, 16:54:47
Post #2

Это просто место… где все подошло к концу.
**************
Group: Металариец
Posts: 6,472
Releases: 0
From: Страны Мамонтов
On Forums: 14 years 11 months
Thanks: 2569 time(s)
Antarctica


Основано на древнем мистическом труде Agronomicon. AGRO-NOM-ICON - книга имен измерителей земли или книга имен агрономов. YA CUC'U'RUSA FTHAGN! (IMG:style_emoticons/default/pray.gif)
Go to the top of the page
  Insert nick Quick quote
+Quote Post
post Dec 23 2018, 19:01:31
Post #3

Аннигилятор пивА
Group Icon
Group: V.I.P
Posts: 52,360
Releases: 16550
From: Koenigsberg - TILZIT
On Forums: 15 years 8 months
Thanks: 368842 time(s)
Russian Federation


mirror
Register


ЦИТАТА(avather @ Dec 23 2018, 15:54:47) *
Основано на древнем мистическом труде Agronomicon. AGRO-NOM-ICON - книга имен измерителей земли или книга имен агрономов. YA CUC'U'RUSA FTHAGN! (IMG:style_emoticons/default/pray.gif)

я волшебные слова знаю


Go to the top of the page
  Insert nick Quick quote
+Quote Post
post Dec 23 2018, 21:23:49
Post #4

Сектант технодро4чер
**************
Group: Металариец
Posts: 5,596
Releases: 143
From: Тимчасово окупована територія
On Forums: 13 years 5 months
Thanks: 6008 time(s)
Ukraine


Скорее экспериментал, чем прог (IMG:style_emoticons/default/look.gif)
Go to the top of the page
  Insert nick Quick quote
+Quote Post
post Dec 25 2018, 09:11:20
Post #5

Don't be negative.
**************
Group: Металариец
Posts: 2,917
Releases: 763
From: Earthmother
On Forums: 11 years 4 months
Thanks: 10358 time(s)
Ukraine


Эстетик продолжает радовать бестолковыми стилями в графе "жанр"))
Сабж чистый нео-грайндкор в духе Напалм Дэда и Брутал Трус, разбавленный экспериментальными ответвлениями. На втором плане тут идёт металкор, причём мелодичный. Поверх то и дело включается блэк-дэт элементы. В последнюю же - лёгкие примеси мат-рока (в прошлом альбоме вообще пост-рок юзался). В каком-то треке посередине играет почти натуральный брутальный дэткор с брейками (но только один трек). В целом впечатления положительные, на ряду с Flattbush один из лучших грайндкор альбомов года.


Thanks:
(1) Evilded,
Go to the top of the page
  Insert nick Quick quote
+Quote Post
post Dec 1 2021, 09:40:12
Post #6

Мегаманьяк
***********
Group: Металариец
Posts: 1,986
Releases: 661
On Forums: 11 years 2 months
Thanks: 13975 time(s)
Italy


Re up same properties
Register


Thanks:
(1) wreak,
Go to the top of the page
  Insert nick Quick quote
+Quote Post

Reply to this topicStart new topic
1 User(s) are reading this topic (1 Guests and 0 Anonymous Users)
0 Members:

 



- Lo-Fi Version Support form
Copyrights and abuse reports form
Time is now: 28th January 2022 - 23:43:03