Welcome Guest ( Log In | Register )

> Death Fortress - Reign Of The Unending (2018), Black Metal
post Dec 26 2018, 12:58:16
Post #1

Правь статус, ####!111
**************
Group: Металариец
Posts: 26,055
Releases: 18704
From: Г.Харьков
On Forums: 9 years 6 days
Thanks: 370952 time(s)
Unknown


(IMG:https://metalarea.org/images/audiocovers/2018_Dec/acov_tid314883_thumb.jpg)

*Artist: Death Fortress
*Album: Reign Of The Unending
*Year: 2018
*Genre: Black Metal
*Country: United States (IMG:https://metalarea.org/forum/style_images/flags/United%20States.png)
*Format: mp3@CBR320kbps
*Size: 88MB

Tracklist:
1. Glory to Tyrants 03:57
2. Last Line of Kings 06:22
3. Monolith Winter 08:04
4. Reign of the Unending 05:00
5. Nearer to Purity 07:47
6. Wrath of God 06:36
******************************
Total playing time: 37:46



Extended info
J. Aversario Guitars, Bass, Vocals (?-2013), Guitars (2013-present)
See also: Abazagorath, Altar of Gore, Damnation Lust, DSS, Eternal Fuzz, Jaws of Hades, Malefaction, Massive Retaliation, Senobyte, Siege Column, ex-Dethroned Emperor, ex-Misanthropy Legion, ex-Angelcide, ex-Northern Myst, ex-Necrofog, ex-Softdov, ex-Stressed Out
T. Warrior Bass, Vocals (2013-present)
See also: Damnation Lust, Grave Spirit, Jaws of Hades, Lux Absentia, Malefaction, Massive Retaliation, Senobyte, ex-Dethroned Emperor, ex-Nefarious Cabal, Killing Technology, ex-Replicant, ex-Stressed Out
S. Eldridge Drums (2013-present)
See also: Abysmal Gates, Krukh, Ruinous, Tchornobog (live), ex-Seraphim Lament, ex-Wall of Water, ex-Disma, ex-Funebrarum, ex-Kalopsia, ex-Shadows of Dawn, ex-The Ciem Show, ex-Woe, ex-Ordeals (live), ex-Flesh Mantle, ex-Nights Blood


Technical info
(IMG:https://metalarea.org/images/spectrogram/2018_Dec/4df5e4d468de0b9d908757fcae1b52ac.png)
Input File: 03 Monolith Winter.mp3
Channels : 2
Sample Rate : 44100
Precision : 16-bit
Duration : 00:08:04.39 = 21361555 samples = 36329.2 CDDA sectors
File Size : 19.6M
Bit Rate : 324k
Sample Encoding: MPEG audio (layer I, II or III)
Comments :
Title=Monolith Winter
Artist=Death Fortress
Album=Reign of the Unending
Tracknumber=3
Year=2018



Register


Go to the top of the page
  Insert nick Quick quote
+Quote Post
 
Start new topic
Replies (1 - 10)
post Dec 26 2018, 14:39:50
Post #2

Правь статус, ####!111
**************
Group: Металариец
Posts: 26,055
Releases: 18704
From: Г.Харьков
On Forums: 9 years 6 days
Thanks: 370952 time(s)
Unknown


Cloud Mail 320
Register


Go to the top of the page
  Insert nick Quick quote
+Quote Post
post Dec 26 2018, 17:33:43
Post #3

градусы контрастов
**************
Group: Металариец
Posts: 4,909
Releases: 0
On Forums: 5 years 3 months
Thanks: 3182 time(s)
Unknown


блин, всё круто, но гроул вокал меня убивает.


Thanks:
(1) RUSP73,
Go to the top of the page
  Insert nick Quick quote
+Quote Post
post Dec 26 2018, 18:26:11
Post #4
BAN
Banned till
May 18 2021, 18:01:31



агонь! уроган! стехия!

все как надо кароч


Thanks:
Go to the top of the page
  Insert nick Quick quote
+Quote Post
post Dec 26 2018, 20:06:21
Post #5

Full-of-Hate
**************
Group: Металариец
Posts: 4,385
Releases: 0
From: Moscow
On Forums: 11 years 10 months
Thanks: 4491 time(s)
Russian Federation


Все прекрасно, но гроулинг а-ля "обоcравшийся медведь гризли" просто губит пластинку.


Thanks:
Go to the top of the page
  Insert nick Quick quote
+Quote Post
post Dec 26 2018, 21:05:40
Post #6

Мегаманьяк
***********
Group: Металариец
Posts: 1,567
Releases: 14
From: Москва
On Forums: 13 years 1 month
Thanks: 1000 time(s)
Antarctica


Гроулинг очень даже по канону и без него малина вообще была бы не та.
Go to the top of the page
  Insert nick Quick quote
+Quote Post
post Dec 28 2018, 23:23:47
Post #7

Четыре Литра
****
Group: Металариец
Posts: 331
Releases: 0
On Forums: 12 years 3 months
Thanks: 263 time(s)
Brazil


Напомнило Hate Forest. Даже название созвучно. (IMG:style_emoticons/default/1488.gif)


Thanks:
(1) ent404,
Go to the top of the page
  Insert nick Quick quote
+Quote Post
post Dec 29 2018, 19:02:20
Post #8

 
Group Icon
Group: V.I.P
Posts: 1,959
Releases: 152
On Forums: 14 years 7 months
Thanks: 15950 time(s)
Unknown


Очень круто, один из лучших альбомов в этом году.


Thanks:
(1) sacrut,
Go to the top of the page
  Insert nick Quick quote
+Quote Post
post Dec 30 2018, 09:30:53
Post #9

градусы контрастов
**************
Group: Металариец
Posts: 4,909
Releases: 0
On Forums: 5 years 3 months
Thanks: 3182 time(s)
Unknown


при всей этой бушующей ярости, альбом имеет столь сильный трагикомеланхоличный фон, что аж глаза закатываются, почему то напомнило Falling Monuments (сами знаете кого).
к гроулу привыкаешь, он таки тоже элемент атмосферы создаёт.
весьма. никаких диссонансов и прочей заумной чепухи. класс.
Go to the top of the page
  Insert nick Quick quote
+Quote Post
post Dec 31 2018, 10:57:41
Post #10

кручу наждак
**************
Group: Металариец
Posts: 4,952
Releases: 104
From: Самара
On Forums: 11 years 3 days
Thanks: 3990 time(s)
Russian Federation


Альбом прекрасен настолько, что моментами всплывали ассоциации с Immortal 93-95 годов (не считая вокала конечно).
Go to the top of the page
  Insert nick Quick quote
+Quote Post
post May 4 2021, 18:04:13
Post #11

Правь статус, ####!111
**************
Group: Металариец
Posts: 7,355
Releases: 165
From: URUGUAY
On Forums: 14 years 7 months
Thanks: 21603 time(s)
Uruguay


320
Register
Go to the top of the page
  Insert nick Quick quote
+Quote Post

Reply to this topicStart new topic
1 User(s) are reading this topic (1 Guests and 0 Anonymous Users)
0 Members:

 



- Lo-Fi Version Support form
Copyrights and abuse reports form
Time is now: 16th May 2021 - 19:25:33