Welcome Guest ( Log In | Register )

> Wraith Eternal - The Unholy Enlightenment [ep] (2018), Deathcore/Death Metal
post Dec 28 2018, 02:40:29
Post #1

Serial Uploader
Group Icon
Group: V.I.P
Posts: 37,136
Releases: 35320
From: Lithuania
On Forums: 11 years 11 months
Thanks: 419631 time(s)
Lithuania


(IMG:http://metalarea.org/images/audiocovers/2018_Dec/acov_tid314987_thumb.jpg)

*Artist: Wraith Eternal
*Album: The Unholy Enlightenment [ep]
*Year: 2018
*Genre: Deathcore/Death Metal
*Country: Canada (IMG:http://metalarea.org/forum/style_images/flags/Canada.png)
*Format: mp3@CBR320kbps
*Size: 64MB

Tracklist:
01. The Sound of a Demon Breathing
02. Terminal Hypocrisy
03. Immortal Casket
04. Falsehood
05. Blasphemous
06. Angelus Lapsus
******************************
Total playing time: 27:50



Technical info
(IMG:http://metalarea.org/images/spectrogram/2018_Dec/2ed3ede04adae54a68dffabdfbe9950c.png)
Input File: 02. Terminal Hypocrisy.mp3
Channels : 2
Sample Rate : 44100
Precision : 16-bit
Duration : 00:04:19.41 = 11440113 samples = 19456 CDDA sectors
File Size : 10.4M
Bit Rate : 321k
Sample Encoding: MPEG audio (layer I, II or III)
Comments :
Title=Terminal Hypocrisy
Artist=Wraith Eternal
Album=The Unholy Enlightenment
Tracknumber=2/6
Year=2018



Register


Thanks:
Go to the top of the page
  Insert nick Quick quote
+Quote Post
 
Start new topic
Replies (1 - 3)
post Dec 28 2018, 06:18:16
Post #2

Три Литра
***
Group: Завсегдатай
Posts: 273
Releases: 0
From: Россия
On Forums: 8 years 3 months
Thanks: 90 time(s)
Russian Federation


Тип релиза ЕР Снова обман от тебя,еще один лживый

First single off our upcoming E.P

https://www.youtube.com/watch?v=lXxsIPxnzA8


Thanks:
(1) Ostinato,
Go to the top of the page
  Insert nick Quick quote
+Quote Post
post Dec 28 2018, 07:49:02
Post #3

Group: Подсевший
Posts: 15
Releases: 0
On Forums: 6 years 10 months
Thanks: 8 time(s)
Russian Federation


ЦИТАТА(Kehl05 @ Dec 28 2018, 09:18:16) *
Тип релиза ЕР Снова обман от тебя,еще один лживый

First single off our upcoming E.P

https://www.youtube.com/watch?v=lXxsIPxnzA8

ты искренне радуешься от того,что релизёр не указал "EP"? сколько лет тебе,юноша?


Thanks:
(1) krotovich,
Go to the top of the page
  Insert nick Quick quote
+Quote Post
post Dec 28 2018, 12:33:56
Post #4

Serial Uploader
Group Icon
Group: V.I.P
Posts: 37,136
Releases: 35320
From: Lithuania
On Forums: 11 years 11 months
Thanks: 419631 time(s)
Lithuania


QUOTE(Kehl05 @ Dec 28 2018, 09:18:16) *
Тип релиза ЕР Снова обман от тебя,еще один лживый
First single off our upcoming E.P
https://www.youtube.com/watch?v=lXxsIPxnzA8


No problem, sir. An error has been detected and corrected! (IMG:style_emoticons/default/smile1.gif)
Go to the top of the page
  Insert nick Quick quote
+Quote Post

Reply to this topicStart new topic
2 User(s) are reading this topic (2 Guests and 0 Anonymous Users)
0 Members:

 



- Lo-Fi Version Support form
Copyrights and abuse reports form
Time is now: 5th June 2020 - 20:46:03