Welcome Guest ( Log In | Register )

> Artsonic - Sonic Area (1997), Technical Thrash Metal
post Jan 4 2019, 10:05:09
Post #1

Groove/Industrial/Aggressive Nu Metal
**************
Group: Металариец
Posts: 2,646
Releases: 65
From: Technical Death из 90-х
On Forums: 11 years 2 months
Thanks: 6444 time(s)
Unknown


(IMG:https://metalarea.org/images/audiocovers/2019_Jan/acov_tid315326_thumb.jpg)

*Artist: Artsonic
*Album: Sonic Area
*Year: 1997
*Genre: Technical Thrash Metal
*Country: France (IMG:https://metalarea.org/forum/style_images/flags/France.png)
*Format: mp3@CBR320kbps
*Size: 110MB

Tracklist:
01. Troubles 05:32
02. Vice 05:03
03. Irrelevant Patriotism 06:04
04. Braindead Humanity 05:19
05. Generations 07:30
06. Xenophobia 03:46
07. Serve the Enemy 04:37
08. Race Extinction 05:05
09. My Voice 06:18
10. Deadly Scream 03:32
******************************
Total playing time: 52:46

(IMG:https://metalarea.org/images/youtube.png)

Technical info
(IMG:https://metalarea.org/images/spectrogram/2019_Jan/2fbb5ab649f688b95893e763885924f6.png)
Input File: 03 Irrelevant Patriotism.mp3
Channels : 2
Sample Rate : 44100
Precision : 16-bit
Duration : 00:06:07.79 = 16219671 samples = 27584.5 CDDA sectors
File Size : 14.7M
Bit Rate : 320k
Sample Encoding: MPEG audio (layer I, II or III)
Comments :
Title=Irrelevant Patriotism
Artist=Artsonic
Album=Sonic Area
Tracknumber=3
Year=1997
Genre=Technical Thrash Metal



Register


Go to the top of the page
  Insert nick Quick quote
+Quote Post
 
Start new topic
Replies (1 - 2)
post Jan 5 2019, 00:54:53
Post #2

Шесть Литров
******
Group: Металариец
Posts: 611
Releases: 0
From: Нижний Новгород
On Forums: 15 years 1 month
Thanks: 247 time(s)
Russian Federation


Очень хорошая группа. Органично, но без фанатизма используют шульдинеровские наработки, добавляют своего и балансируют на грани прогрессив трэш/дэт.


Go to the top of the page
  Insert nick Quick quote
+Quote Post
post Feb 5 2019, 13:56:30
Post #3

Schuldinerist
**************
Group: Металариец
Posts: 10,961
Releases: 34
From:
On Forums: 14 years 5 months
Thanks: 7235 time(s)
Russian Federation


Как все уже выяснили и знают, в 90-х была тьма тьмущая техно-прог-трэшевых альбомов в похожем звучании, часто это группы одного альбома.
Работа Artsonic - Sonic Area (1997) - пример такого не самого талантливого техно-трэша, можно смело пропустить или наоборот взять, не слушая, в фанатскую коллекцию техно-трэшера.
Шульдинеровские наработки тут очень условные - Чак на всех хорошо влиял и влияет.
7/10
Go to the top of the page
  Insert nick Quick quote
+Quote Post

Reply to this topicStart new topic
1 User(s) are reading this topic (1 Guests and 0 Anonymous Users)
0 Members:

 



- Lo-Fi Version Support form
Copyrights and abuse reports form
Time is now: 20th September 2021 - 21:54:00