Welcome Guest ( Log In | Register )

> И неформату есть предел.

Рэп/хип-хоп/шансон/поп удаляются. Для них есть свои порталы.

> Cernunnos - Τα Ορυχεία Των Νάνων [demo] (1997), Dungeon Synth/Medieval Dark Ambient
post Jan 8 2019, 09:40:21
Post #1

Group Icon
Group: S-moderation team
Posts: 21,945
Releases: 1443
From: Zagreb
On Forums: 10 years 6 months
Thanks: 102466 time(s)
Croatia


(IMG:http://metalarea.org/images/audiocovers/2019_Jan/acov_tid315561_thumb.JPG)

*Artist: Cernunnos
*Album: Τα Ορυχεία Των Νάνων [demo]
*Year: 1997
*Genre: Dungeon Synth/Medieval Dark Ambient
*Country: Greece (IMG:http://metalarea.org/forum/style_images/flags/Greece.png)
*Format: mp3@CBR320kbps
*Size: 52MB

Tracklist:
01 Τα Ορυχεία Των Νάνων 04:28
02 Σπηλειές Των Καλικαντζάρων 03:23
03 Στην Καλύβα Του Πράσινου Ξωτικού 02:15
04 Η Μάχη Των Στοιχειών 02:35
******************************
Total playing time: 12:41

youtube

Extended info
Cassette, Dionysion Productions.

Line up:
Athalwolf - All instruments, Vocals (1998-present) (Zofos, Der Stürmer (live), ex-Bacchia Neraida, ex-Ravenbanner, ex-Strigoi, ex-The Shadow Order, ex-Elfen)


Technical info
(IMG:http://metalarea.org/images/spectrogram/2019_Jan/3bdc6b09cb6903319e86da8828e76aae.png)
Input File: 01 - Τα Ορχυχεία Των Νάνων.mp3
Channels : 2
Sample Rate : 48000
Precision : 16-bit
Duration : 00:04:28.85 = 12904848 samples ~ 20163.8 CDDA sectors
File Size : 11.0M
Bit Rate : 328k
Sample Encoding: MPEG audio (layer I, II or III)
Comments :
Title=Τα Ορχυχεία Των Νάνων
Artist=Cernunnos
Album=Ta Orychia Ton Nanon
Tracknumber=01
Year=1997
Genre=Dungeon Synth



Register


Go to the top of the page
  Insert nick Quick quote
+Quote Post
 
Start new topic
Replies (1 - 1)
post Nov 17 2019, 19:37:13
Post #2

**************
Group: Металариец
Posts: 2,730
Releases: 14
From: Казань
On Forums: 12 years 5 days
Thanks: 3812 time(s)
Russian Federation


Обожаю такую Таинственность в мелодиях и подвальный стафф атмосферы винтажных фильмов ужасов 20 гг. Здесь настоящая Магия Звука, Магия Холода, обвивающим погребальными лапами твой позвоночник . Разврат в Эдеме, грядущий после Пришествия, пепельными саженцами растущими из головы Праведников, в моменты эякуляции говорящими- я Христос!

Истинно говорю вам,
нет ни одного достаточно праведного,
чтобы воспротивиться, нет, ни одного...
Ведь ваши руки запятнаны кровью,
а пальцы ваши – беззаконием;
Ваши губы говорили ложь,
ваш язык бормотал порочности.
Сердце падшего ангела находится в земле,
непорочное унижено... на веки вечные.
Go to the top of the page
  Insert nick Quick quote
+Quote Post

Reply to this topicStart new topic
1 User(s) are reading this topic (1 Guests and 0 Anonymous Users)
0 Members:

 



- Lo-Fi Version Support form
Copyrights and abuse reports form
Time is now: 20th September 2021 - 03:04:54