Welcome Guest ( Log In | Register )

> Epica & Metropole Orkest - Beyond The Matrix: The Battle [collaboration] (2018), Symphonic/Power Metal | Orchestral (D)
post Jan 9 2019, 18:30:57
Post #1

Правь статус, ####!111
**************
Group: Металариец
Posts: 3,960
Releases: 3613
From: Одесса
On Forums: 12 years 11 months
Thanks: 38824 time(s)
Ukraine


(IMG:http://metalarea.org/images/audiocovers/2019_Jan/acov_tid315641_thumb.jpg)

*Artist: Epica & Metropole Orkest
*Album: Beyond The Matrix: The Battle [collaboration]
*Year: 2018
*Genre: Symphonic/Power Metal | Orchestral
*Country: Netherlands (IMG:http://metalarea.org/forum/style_images/flags/Netherlands.png) | Netherlands (IMG:http://metalarea.org/forum/style_images/flags/Netherlands.png)
*Format: mp3@CBR320kbps
*Size: 44MB

Tracklist:
1. Beyond the Matrix: The Battle 09:08
2. Beyond the Matrix: The Battle (Orchestral Version) 09:08
******************************
Total playing time: 18:16

Extended info
Line - up:
Mark Jansen - Guitars (rhythm), Vocals (harsh), Songwriting (Mayan, ex-Infernorama, ex-Sahara Dust, Universal Mind Project, ex-Carthagods (live), ex-After Forever, ex-ReVamp (live))
Coen Janssen- Keyboards, Piano, Songwriting, Vocals (choirs) (backing) (ex-Sahara Dust, ex-Kamelot (live))
Simone Simons - Vocals (female), Songwriting (ex-Sahara Dust, ex-Kamelot (live), ex-Mayan (live))
Ariën van Weesenbeek - Drums, Songwriting (Mayan, ex-Down Till Dawn, ex-Edgecrusher, ex-Pandaemonium, ex-God Dethroned, ex-HDK, ex-Aborted (live), ex-Conspiracy, ex-Downslide)
Isaac Delahaye - Guitars (lead), Songwriting, Vocals (choirs) (backing)
Rob van der Loo - Bass, Songwriting (ex-Down Till Dawn, ex-Edgecrusher, ex-Forcible, ex-God Dethroned, ex-Mayan, ex-Panopticum)

Guest/Session:
Arjen Anthony Lucassen - Guitar solo (Ayreon, The Gentle Storm, Guilt Machine, Star One, ex-Ambeon, ex-Bodine, ex-Vengeance, ex-Stream of Passion)
Kamerkoor PA'dam - Vocals (choirs) (Devin Townsend Project, ReVamp, Within Temptation, Xandria)
Marcela Bovio - Vocals (backing) (Mayan, ex-Elfonía, ex-Hydra, ex-Stream of Passion, ex-Karmaflow (live), Marcela Bovio, ex-Vuur, ex-Kamelot (live), ex-The Gentle Storm (live), ex-Dalai)
Linda Janssen - Vocals (backing)
Joost van den Broek - Vocals (choirs) (backing) (Star One, The Gentle Storm (live), ex-After Forever, ex-Sphere of Souls, ex-The Supremacy, ex-Sun Caged)

(IMG:https://www.metal-archives.com/images/6/7/1/6/6716_photo.jpg?2054)


Technical info
(IMG:http://metalarea.org/images/spectrogram/2019_Jan/c2e14e991595616e1113a31893eef55c.png)
Input File: 01 Beyond the Matrix The Battle (feat. Metropole Orkest).mp3
Channels : 2
Sample Rate : 44100
Precision : 16-bit
Duration : 00:09:08.13 = 24172709 samples = 41110 CDDA sectors
File Size : 21.9M
Bit Rate : 320k
Sample Encoding: MPEG audio (layer I, II or III)
Comments :
Title=Beyond the Matrix: The Battle (feat. Metropole Orkest)
Artist=Epica / Metropole Orkest
Album=Beyond the Matrix: The Battle (Collaboration)
Tracknumber=1
Year=2018
Genre=Symphonic / Power Metal



Register


Go to the top of the page
  Insert nick Quick quote
+Quote Post
 
Start new topic
Replies (1 - 4)
post Jan 9 2019, 19:01:16
Post #2

Правь статус, ####!111
**************
Group: Металариец
Posts: 48,732
Releases: 822
On Forums: 11 years 11 months
Thanks: 43192 time(s)
Russian Federation


Keep on releasing boring stuff that can only be used as lounge at nursing homes.
Go to the top of the page
  Insert nick Quick quote
+Quote Post
post Jan 9 2019, 19:21:04
Post #3

Аннигилятор пивА
Group Icon
Group: V.I.P
Posts: 52,360
Releases: 16550
From: Koenigsberg - TILZIT
On Forums: 14 years 11 months
Thanks: 367534 time(s)
Russian Federation


ЦИТАТА(vosmidesijatye @ Jan 9 2019, 18:01:16) *
Keep on releasing boring stuff that can only be used as lounge at nursing homes.

ты хоть послушал? эксперимент весьма интересный, конечно ДСО это давно делала, но всеж, нескушный авант симфо метал в итоге, я бы такой альбом послушал, единственно поменьше бы симфо-опера вставок и побольше джаза с миталом
Go to the top of the page
  Insert nick Quick quote
+Quote Post
post May 4 2021, 20:51:01
Post #4

Group: Подсевший
Posts: 27
Releases: 0
On Forums: 12 years 11 months
Thanks: 1 time(s)
Brazil


Hi, do you can reup, please (IMG:style_emoticons/default/pray.gif)
Go to the top of the page
  Insert nick Quick quote
+Quote Post
post May 5 2021, 15:48:26
Post #5

Group Icon
Group: S-moderation team
Posts: 20,829
Releases: 1443
From: Zagreb
On Forums: 10 years 2 months
Thanks: 95437 time(s)
Croatia


Register


Thanks:
Go to the top of the page
  Insert nick Quick quote
+Quote Post

Reply to this topicStart new topic
2 User(s) are reading this topic (2 Guests and 0 Anonymous Users)
0 Members:

 



- Lo-Fi Version Support form
Copyrights and abuse reports form
Time is now: 16th May 2021 - 19:52:14