Welcome Guest ( Log In | Register )

> Summoning Death - The House That Screamed (2018), Old School Death Metal
post Jan 13 2019, 06:23:01
Post #1

Правь статус, ####!111
**************
Group: Металариец
Posts: 28,129
Releases: 20522
From: Г.Харьков
On Forums: 9 years 6 months
Thanks: 417290 time(s)
Unknown


(IMG:https://metalarea.org/images/audiocovers/2019_Jan/acov_tid315830_thumb.jpg)

*Artist: Summoning Death
*Album: The House That Screamed
*Year: 2018
*Genre: Old School Death Metal
*Country: Mexico (IMG:https://metalarea.org/forum/style_images/flags/Mexico.png)
*Format: mp3@CBR320kbps
*Size: 132MB

Tracklist:
1. Intro 01:08
2. The Screaminfg Skull (1958) 04:30
3. Night of the Living Death (1968) 06:01
4. Carnival of Souls (1962) 05:04
5. Keep My Grave Open (1976) 02:56
6. The Cabinet of Doctor Caligari (1920) 04:07
7. Attack of the Giant Leeches (1959) 04:13
8. The Embalmer (1959) 05:45
9. The Night Evelyn Came Out of the Grave (1971) 01:43
10. House (1985) 05:25
11. Maniac (1934) 06:04
12. The House That Screamed (1969) 06:12
13. Torn Apart (carnage cover) 05:16
******************************
Total playing time: 58:24




Extended info
Ángel Santos Drums
José Javier Valdez Guitars
Ricardo Gil Guitars
See also: Difer Nom Basta, ex-As Light Fades, ex-Denial, ex-Necroccultus, ex-The Suffering, ex-Trono de Huesos
Sergio Álvarez Bass (2018-present)
See also: Difer Nom Basta, ex-Ravager, ex-Hacavitz


Technical info
(IMG:https://metalarea.org/images/spectrogram/2019_Jan/43faf9c73dd5a1e92487e5d45e6d2245.png)
Input File: 06 The Cabinet of Doctor Caligari (1920).mp3
Channels : 2
Sample Rate : 44100
Precision : 16-bit
Duration : 00:04:09.59 = 11006743 samples = 18719 CDDA sectors
File Size : 9.99M
Bit Rate : 320k
Sample Encoding: MPEG audio (layer I, II or III)
Comments :
Title=The Cabinet of Doctor Caligari (1920)
Artist=Summoning Death
Album=The House That Screamed
Tracknumber=6
Year=2018
Genre=Death Metal



Register


Go to the top of the page
  Insert nick Quick quote
+Quote Post
 
Start new topic
Replies (1 - 3)
post Jan 13 2019, 09:21:30
Post #2

Правь статус, ####!111
**************
Group: Металариец
Posts: 28,129
Releases: 20522
From: Г.Харьков
On Forums: 9 years 6 months
Thanks: 417290 time(s)
Unknown


Cloud Mail 320
Register


Go to the top of the page
  Insert nick Quick quote
+Quote Post
post Jan 13 2019, 09:49:32
Post #3

A.M.S.G.
**************
Group: Металариец
Posts: 2,704
Releases: 52
From: Sitra Achra
On Forums: 13 years 7 months
Thanks: 1696 time(s)
Unknown


Четкий олдскулл!!Мелодичный и одновременно жесткий!Все в тему!


Thanks:
Go to the top of the page
  Insert nick Quick quote
+Quote Post
post Jan 20 2019, 23:21:14
Post #4

Это просто место… где все подошло к концу.
**************
Group: Металариец
Posts: 6,443
Releases: 0
From: Страны Мамонтов
On Forums: 14 years 9 months
Thanks: 2536 time(s)
Antarctica


По фильмам названы трэки
Go to the top of the page
  Insert nick Quick quote
+Quote Post

Reply to this topicStart new topic
2 User(s) are reading this topic (2 Guests and 0 Anonymous Users)
0 Members:

 



- Lo-Fi Version Support form
Copyrights and abuse reports form
Time is now: 26th November 2021 - 23:53:35