Welcome Guest ( Log In | Register )

> Kiira - Taottu Mustassa Tulessa [demo] (2018), Black Metal
post Jan 14 2019, 01:13:21
Post #1

Аннигилятор пивА
Group Icon
Group: V.I.P
Posts: 52,520
Releases: 16540
From: Koenigsberg - TILZIT
On Forums: 17 years 4 months
Thanks: 371160 time(s)
Russian Federation


(IMG:https://metalarea.org/images/audiocovers/2019_Jan/acov_tid315880_thumb.jpg)

*Artist: Kiira
*Album: Taottu Mustassa Tulessa [demo]
*Year: 2018
*Genre: Black Metal
*Country: Finland (IMG:https://metalarea.org/forum/style_images/flags/Finland.png)
*Format: mp3@CBR320kbps
*Size: 63MB

Tracklist:
1. Noidan Ennustus 06:34
2. Jäisestä Haudasta 05:42
3. Yö Ulvoo 05:51
4. Varjottoman Valon Pyhättö 08:46
******************************
Total playing time: 26:53

Preview 1

Preview 3

Extended info
Astral Temple
Format: Vinyl, 12", 33 ⅓ RPM, Limited Edition, Numbered, Remastered
Composed in 2011 and recorded in 2012. Remastered in 2017.
Definitive edition of the demo. Contains the track the demo was named after in favour of "Noidan Ennustus", both handling the same kind of spiritual approach in the lyrics.

Käärmeenkieli - Bass, Guitars, Vocals (Myling)
Susivasara - Drums
Hrabnaz - Guitars


Technical info
(IMG:https://metalarea.org/images/spectrogram/2019_Jan/a7e8220677af225f8108331d5ea7e74f.png)
Input File: 02. Jaisesta Haudasta.mp3
Channels : 2
Sample Rate : 48000
Precision : 16-bit
Duration : 00:05:31.25 = 15900048 samples ~ 24843.8 CDDA sectors
File Size : 13.3M
Bit Rate : 320k
Sample Encoding: MPEG audio (layer I, II or III)
Comments :
Title=Jaisesta Haudasta
Artist=Kiira
Album=Taottu Mustassa Tulessa
Tracknumber=2
Year=2018
Genre=Black Metal



Register


Go to the top of the page
  Insert nick Quick quote
+Quote Post
 
Start new topic
Replies (1 - 5)
post Jan 14 2019, 14:28:08
Post #2

Аннигилятор пивА
Group Icon
Group: V.I.P
Posts: 52,520
Releases: 16540
From: Koenigsberg - TILZIT
On Forums: 17 years 4 months
Thanks: 371160 time(s)
Russian Federation


более громкий рип, в остальном параметры те же

Register


Thanks:
Go to the top of the page
  Insert nick Quick quote
+Quote Post
post Jan 14 2019, 15:45:56
Post #3

Три Литра
***
Group: Завсегдатай
Posts: 273
Releases: 0
From: Россия
On Forums: 11 years 7 months
Thanks: 93 time(s)
Russian Federation


Release date:
April 2nd, 2015

https://www.metal-archives.com/albums/Kiira..._tulessa/502112
Go to the top of the page
  Insert nick Quick quote
+Quote Post
post Jan 14 2019, 16:46:00
Post #4
BAN
Banned till
Oct 6 2023, 16:06:35



гуд. (IMG:style_emoticons/default/true_black.gif)
Go to the top of the page
  Insert nick Quick quote
+Quote Post
post Jan 14 2019, 20:09:57
Post #5

De Mysteriis Dom Sathanas
**************
Group: Металариец
Posts: 4,655
Releases: 64
From: Doom
On Forums: 15 years 2 months
Thanks: 4113 time(s)
Russian Federation


Спасибо за 320..была версия Necroscum'a в 128, датированная почему-то 2012 годом
Go to the top of the page
  Insert nick Quick quote
+Quote Post
post Jan 14 2019, 20:20:34
Post #6

De Mysteriis Dom Sathanas
**************
Group: Металариец
Posts: 4,655
Releases: 64
From: Doom
On Forums: 15 years 2 months
Thanks: 4113 time(s)
Russian Federation


ЦИТАТА(Kehl05 @ Jan 14 2019, 17:45:56) *

Если винил версия, то 2018)
Go to the top of the page
  Insert nick Quick quote
+Quote Post

Reply to this topicStart new topic
1 User(s) are reading this topic (1 Guests and 0 Anonymous Users)
0 Members:

 



- Lo-Fi Version Support form
Copyrights and abuse reports form
Time is now: 3rd October 2023 - 08:00:52