Welcome Guest ( Log In | Register )

> Inferno - Basado En Hechos Reales (2019), Thrash Metal (D)
post Jan 22 2019, 12:07:22
Post #1

Аннигилятор пивА
Group Icon
Group: V.I.P
Posts: 52,415
Releases: 16545
From: Koenigsberg - TILZIT
On Forums: 16 years 6 months
Thanks: 370185 time(s)
Russian Federation


(IMG:https://metalarea.org/images/audiocovers/2019_Jan/acov_tid316282_thumb.jpg)

*Artist: Inferno
*Album: Basado En Hechos Reales
*Year: 2019
*Genre: Thrash Metal
*Country: Spain (IMG:https://metalarea.org/forum/style_images/flags/Spain.png)
*Format: mp3@CBR320kbps
*Size: 78MB

Tracklist:
1. Ruega Por Nosotros 04:02
2. Tu Sucio Dinero 03:00
3. Como a Marionetas 03:10
4. Vuestra Ceguera 02:56
5. Apriétate el Bozal 03:41
6. Espiral de Mentiras 04:00
7. Condenado a Vivir 03:21
8. Sin Domesticar 03:20
9. Exterminio 03:05
10. Noches Sin Tregua 03:22
******************************
Total playing time: 33:57



Extended info
Carlos Bermejo - Bass See also: ex-Decadence
Miguel Osuna - Drums See also: ex-Decadence
Antonio González - Guitars
Juan Manuel León - Vocals
Koto - Guitars (2016-present)


Technical info
(IMG:https://metalarea.org/images/spectrogram/2019_Jan/0a8f4edb790004c74497d00de8a180ed.png)
Input File: 2 - Tu sucio dinero.mp3
Channels : 2
Sample Rate : 44100
Precision : 16-bit
Duration : 00:03:00.73 = 7969973 samples = 13554.4 CDDA sectors
File Size : 7.33M
Bit Rate : 325k
Sample Encoding: MPEG audio (layer I, II or III)
Comments :
Title=Tu sucio dinero
Artist=Inferno
Album=Basado en hechos reales
Tracknumber=2
Year=2019
Genre=Metal
Discnumber=1



Register


Go to the top of the page
  Insert nick Quick quote
+Quote Post
 
Start new topic
Replies (1 - 5)
post Jan 22 2019, 14:10:29
Post #2

Аннигилятор пивА
Group Icon
Group: V.I.P
Posts: 52,415
Releases: 16545
From: Koenigsberg - TILZIT
On Forums: 16 years 6 months
Thanks: 370185 time(s)
Russian Federation


MIRROR
Register





Thanks:
Go to the top of the page
  Insert nick Quick quote
+Quote Post
post Jan 22 2019, 17:53:22
Post #3

Common dweller of hell
**************
Group: Металариец
Posts: 4,497
Releases: 12
From: Dnipro
On Forums: 14 years 4 months
Thanks: 1781 time(s)
Ukraine


Жал шта на ишпанском изыке пают.


Thanks:
(1) Megaden,
Go to the top of the page
  Insert nick Quick quote
+Quote Post
post Nov 10 2021, 15:01:24    Сейчас играет: Re-up please ;-)
Post #4

Правь статус, ####!111
**************
Group: Металариец
Posts: 2,607
Releases: 0
From: Sofia
On Forums: 15 years 2 months
Thanks: 87 time(s)
Bulgaria


Please re-up (IMG:style_emoticons/default/pray.gif) (IMG:style_emoticons/default/pray.gif) (IMG:style_emoticons/default/pray.gif) (IMG:style_emoticons/default/pray.gif)
Go to the top of the page
  Insert nick Quick quote
+Quote Post
post Nov 12 2021, 14:47:13
Post #5

Правь статус, ####!111
Group Icon
Group: S-moderation team
Posts: 22,058
Releases: 1443
On Forums: 11 years 9 months
Thanks: 114601 time(s)
Unknown


Register


Thanks:
Go to the top of the page
  Insert nick Quick quote
+Quote Post
post Nov 12 2021, 15:08:13
Post #6

Правь статус, ####!111
**************
Group: Металариец
Posts: 2,607
Releases: 0
From: Sofia
On Forums: 15 years 2 months
Thanks: 87 time(s)
Bulgaria


Thank you so much ! (IMG:style_emoticons/default/headcrab.png) (IMG:style_emoticons/default/9.gif) (IMG:style_emoticons/default/pray.gif)


QUOTE(Moldavite @ Nov 12 2021, 13:47:13) *

Go to the top of the page
  Insert nick Quick quote
+Quote Post

Reply to this topicStart new topic
2 User(s) are reading this topic (2 Guests and 0 Anonymous Users)
0 Members:

 



- Lo-Fi Version Support form
Copyrights and abuse reports form
Time is now: 3rd December 2022 - 17:42:51