Welcome Guest ( Log In | Register )

> Syu - Vorvados (2019), Neoclassical/Heavy/Power Metal (D4)
post Jan 22 2019, 13:07:22
Post #1

Serial Uploader
Group Icon
Group: V.I.P
Posts: 37,612
Releases: 35784
From: Lithuania
On Forums: 13 years 3 months
Thanks: 433500 time(s)
Lithuania


(IMG:https://metalarea.org/images/audiocovers/2019_Jan/acov_tid316284_thumb.jpg)

*Artist: Syu
*Album: Vorvados
*Year: 2019
*Genre: Neoclassical/Heavy/Power Metal
*Country: Japan (IMG:https://metalarea.org/forum/style_images/flags/Japan.png)
*Format: mp3@CBR320kbps
*Size: 140MB

Tracklist:
01. Vorvados
02. Reason
03. ここで区切れと天使は歌う
04. 暁
05. Euphoria
06. Chaotic Reality
07. Cacotopia
08. AndroiDedication
09. 哀傷
10. 未完成の翼
11. Blessing
******************************
Total playing time: 1:00:55

Technical info
(IMG:https://metalarea.org/images/spectrogram/2019_Jan/d5e42b4fddf06f3b1a5d6012663b35f6.png)
Input File: 2 - Reason.mp3
Channels : 2
Sample Rate : 44100
Precision : 16-bit
Duration : 00:05:28.80 = 14499860 samples = 24659.6 CDDA sectors
File Size : 13.3M
Bit Rate : 323k
Sample Encoding: MPEG audio (layer I, II or III)
Comments :
Title=Reason
Artist=Syu
Album=Vorvados
Tracknumber=2
Year=2019
Genre=Heavy, Power Metal
Discnumber=1



Register


Go to the top of the page
  Insert nick Quick quote
+Quote Post
 
Start new topic
Replies (1 - 4)
post Jan 22 2019, 14:26:30
Post #2

Аннигилятор пивА
Group Icon
Group: V.I.P
Posts: 52,360
Releases: 16550
From: Koenigsberg - TILZIT
On Forums: 15 years 3 months
Thanks: 368164 time(s)
Russian Federation


Вродеж чел играл инструментал, проверять ниохота этих японо-мальмстинов (IMG:style_emoticons/default/fear.gif) а время альбома точно 8 минут?
Go to the top of the page
  Insert nick Quick quote
+Quote Post
post Jan 24 2019, 11:59:08
Post #3

hearer & reader
**************
Group: Металариец
Posts: 9,871
Releases: 173
From: Moscow
On Forums: 14 years 1 week
Thanks: 11184 time(s)
Russian Federation


ЦИТАТА(aesteticvice @ Jan 22 2019, 16:26:30) *
Вродеж чел играл инструментал, проверять ниохота этих японо-мальмстинов (IMG:style_emoticons/default/fear.gif) а время альбома точно 8 минут?

К большому сожалению, визжит, горланит и блеет какая-то япончина (IMG:style_emoticons/default/22.gif)

Fuki Vocals (tracks 2, 8) овца визгливая
Sono Vocals (track 3)
Haruka Vocals (tracks 4, 10) пискля
Dancho Vocals (track 5) этот ещё ничего
Akane Liv Vocals (track 6) чистый, неплохой
Dougen Vocals (track 6) харш
Masatoshi Ono Vocals (track 9)
на 7 сам спел, как смог...


Thanks:
(1) Foneg,
Go to the top of the page
  Insert nick Quick quote
+Quote Post
post Jan 24 2019, 12:03:46
Post #4

Правь статус, ####!111
**************
Group: Металариец
Posts: 49,207
Releases: 868
On Forums: 12 years 3 months
Thanks: 44653 time(s)
Russian Federation


В Японии лишь Катсу Охта вплотную приблизился к уровню Маэстро.
Go to the top of the page
  Insert nick Quick quote
+Quote Post
post Jan 24 2019, 12:09:00
Post #5

тебе 30, а ты все реверсами балуешься
**************
Group: Металариец
Posts: 2,109
Releases: 4
On Forums: 13 years 1 month
Thanks: 769 time(s)
Russian Federation


Как по мне, Сю с годами всё больше портится, убиваясь по неоклассике, которая раньше выступала вкусной приправой для отличных рифачков.
А годных цепляющих рифачков всё меньше...
Go to the top of the page
  Insert nick Quick quote
+Quote Post

Reply to this topicStart new topic
1 User(s) are reading this topic (1 Guests and 0 Anonymous Users)
0 Members:

 



- Lo-Fi Version Support form
Copyrights and abuse reports form
Time is now: 19th September 2021 - 18:50:17