Welcome Guest ( Log In | Register )

> Corroded - Bitter (2019), Heavy Metal (D6)
post Jan 24 2019, 12:01:17
Post #1

Аннигилятор пивА
Group Icon
Group: V.I.P
Posts: 52,360
Releases: 16550
From: Koenigsberg - TILZIT
On Forums: 15 years 3 months
Thanks: 368163 time(s)
Russian Federation


(IMG:https://metalarea.org/images/audiocovers/2019_Jan/acov_tid316397_thumb.jpg)

*Artist: Corroded
*Album: Bitter
*Year: 2019
*Genre: Heavy Metal
*Country: Sweden (IMG:https://metalarea.org/forum/style_images/flags/Sweden.png)
*Format: mp3@CBR320kbps
*Size: 121MB

Tracklist:
01. Bitter - Intro
02. Breathing
03. Cross
04. Burn
05. Black
06. Testament
07. Scream
08. Cyanide
09. Destruction
10. Time
11. Drown
12. War
******************************
Total playing time: 52:08



Extended info
Jens Westin: Vocals, Guitar
Tomas Andersson: Guitar,Backing vocals
Bjarne Elvsgård: Bass
Per Soläng: Drums


Technical info
(IMG:https://metalarea.org/images/spectrogram/2019_Jan/04905859c9d23bb7c42acd5f5ebbbb9f.png)
Input File: 2 - Breathing.mp3
Channels : 2
Sample Rate : 44100
Precision : 16-bit
Duration : 00:04:40.02 = 12348970 samples = 21001.6 CDDA sectors
File Size : 11.3M
Bit Rate : 322k
Sample Encoding: MPEG audio (layer I, II or III)
Comments :
Title=Breathing
Artist=Corroded
Album=Bitter
Tracknumber=2
Year=2019
Genre=Hard Rock
Discnumber=1



Register


Go to the top of the page
  Insert nick Quick quote
+Quote Post
 
Start new topic
Replies (1 - 1)
post Jan 24 2019, 12:52:53
Post #2

Аннигилятор пивА
Group Icon
Group: V.I.P
Posts: 52,360
Releases: 16550
From: Koenigsberg - TILZIT
On Forums: 15 years 3 months
Thanks: 368163 time(s)
Russian Federation


MIRROR
Register






Thanks:
Go to the top of the page
  Insert nick Quick quote
+Quote Post

Reply to this topicStart new topic
1 User(s) are reading this topic (1 Guests and 0 Anonymous Users)
0 Members:

 



- Lo-Fi Version Support form
Copyrights and abuse reports form
Time is now: 19th September 2021 - 17:16:24