Welcome Guest ( Log In | Register )

> И неформату есть предел.

Рэп/хип-хоп/шансон/поп удаляются. Для них есть свои порталы.

> Wolcensmen - Songs From The Mere [ep] (2019), Heathen Dark Folk/Neofolk
post Jan 25 2019, 09:59:53
Post #1

Четыре Литра
****
Group: Металариец
Posts: 377
Releases: 136
From: Helvetia
On Forums: 8 years 6 months
Thanks: 2940 time(s)
Switzerland


(IMG:https://metalarea.org/images/audiocovers/2019_Jan/acov_tid316458_thumb.jpg)

*Artist: Wolcensmen
*Album: Songs From The Mere [ep]
*Year: 2019
*Genre: Heathen Dark Folk/Neofolk
*Country: United Kingdom (IMG:https://metalarea.org/forum/style_images/flags/United%20Kingdom.png)
*Format: mp3@CBR320kbps
*Size: 42MB

Tracklist:
1. The Ferryman 03:23
2. Lady of the Depe 06:18
3. The Greene Wall 05:15
4. Beholdinge, He... 02:07
5. Man of Iron (Bathory cover) 02:39
******************************
Total playing time: 19:42



Extended info
WOLCENSMEN is the Epic Heathen Folk project brought into being by Dan Capp, also known for his role in WINTERFYLLETH and as an album and logo artist.

Songs from the Mere is the accompanying EP to the reissue of Wolcensmen's debut album, 'Songs from the Fyrgen'. It is available as a standalone release in digital format only, with 'The Greene Wall' being exclusive to Bandcamp. The physical release (CD) is packaged with the CD and vinyl editions of the 'Songs from the Fyrgen' reissue, through Indie Recordings.

These songs were recorded in July 2018. Please note that 'Man of Iron' is a Bathory cover and thus given as a free bonus track. It can also be downloaded for free, independently of the EP. It is not intended that Wolcensmen make any profit from the works of the mighty Quorthon.

Bandcamp purchase includes all 5 songs + cover art + specially-designed digital lyric and credits sheet with liner notes.
credits
released January 11, 2019

All music and lyrics by Dan Capp, except for:
- 'Man of Iron', written by Quorthon.
- 'Beholdinge, He....', written by Jo Quail and Dan Capp.

Performances:
Guitars, vocals and synths - Dan Capp
Cello - Jo Quail
Piano - Mark Deeks
Percussion - Callum Cox
Choirs - Dan Capp and Chris Naughton

Recorded, mixed and mastered by Mark Mynett in July 2018.
Cover photograph by Daniel Walmsley.


Technical info
(IMG:https://metalarea.org/images/spectrogram/2019_Jan/6659fed73bf2f20944379efa202a57f9.png)
Input File: 02. Lady Of The Depe.mp3
Channels : 2
Sample Rate : 44100
Precision : 16-bit
Duration : 00:06:18.86 = 16707858 samples = 28414.7 CDDA sectors
File Size : 15.6M
Bit Rate : 330k
Sample Encoding: MPEG audio (layer I, II or III)
Comments :
Title=Lady Of The Depe
Artist=Wolcensmen
Album=Songs From The Mere
Tracknumber=02
Year=2019
Genre=Neofolk/Dark Folk



Register


Go to the top of the page
  Insert nick Quick quote
+Quote Post
 
Start new topic
Replies (1 - 4)
post Jan 25 2019, 20:58:56
Post #2

Ретроград
**************
Group: Металариец
Posts: 5,252
Releases: 210
On Forums: 14 years 1 month
Thanks: 8551 time(s)
Vatican City


Дядь, ты чего-то напутал. Где песня The Greene Wall? А ковер аж в двух экземплярах...
Go to the top of the page
  Insert nick Quick quote
+Quote Post
post Jan 25 2019, 21:17:44
Post #3

Четыре Литра
****
Group: Металариец
Posts: 377
Releases: 136
From: Helvetia
On Forums: 8 years 6 months
Thanks: 2940 time(s)
Switzerland


I'm sorry man, I checked bandcamp again and the song The Greene Wall is not available. I hope someone bought the physical copy of the cd.
Go to the top of the page
  Insert nick Quick quote
+Quote Post
post Jan 25 2019, 22:47:28
Post #4

Маньяк
**********
Group: Металариец
Posts: 1,119
Releases: 0
On Forums: 10 years 2 months
Thanks: 539 time(s)
Unknown


QUOTE(fylopaloma @ Jan 25 2019, 20:17:44) *
I'm sorry man, I checked bandcamp again and the song The Greene Wall is not available. I hope someone bought the physical copy of the cd.

It doesn't look like it's just the physical release that it's available on, and you even quote it yourself -

"Bandcamp purchase includes all 5 songs + cover art + specially-designed digital lyric and credits sheet with liner notes."

Just looks like the leak doesn't include it for some reason. Thanks anyway as they sound pretty good.

And via them have just discovered Torulf!


Thanks:
Go to the top of the page
  Insert nick Quick quote
+Quote Post
post May 3 2019, 15:22:28
Post #5

Четыре Литра
****
Group: Металариец
Posts: 377
Releases: 136
From: Helvetia
On Forums: 8 years 6 months
Thanks: 2940 time(s)
Switzerland


Sorry for the confusion, this time should be fine!

Register

Register


Thanks:
Go to the top of the page
  Insert nick Quick quote
+Quote Post

Reply to this topicStart new topic
1 User(s) are reading this topic (1 Guests and 0 Anonymous Users)
0 Members:

 



- Lo-Fi Version Support form
Copyrights and abuse reports form
Time is now: 4th August 2021 - 14:42:55