Welcome Guest ( Log In | Register )

Объявления

* gmail.com упорно продолжает считать почту с нас "unsolicited" и отбивает в том числе и письма активации, поэтому просьба использовать альтернативные почтовые ящики.
------------
* gmail.com continues reject all mail from us as "unsolicited" (activation mails too) therefore please use alternate mail servers.
> Demorphed - Creation Of A War Machine (2019), Old School Death Metal
post Jan 27 2019, 05:45:18
Post #1

Правь статус, ####!111
**************
Group: Металариец
Posts: 35,954
Releases: 26795
From: Г.Харьков
On Forums: 12 years 2 weeks
Thanks: 581288 time(s)
Ukraine


(IMG:https://metalarea.org/images/audiocovers/2019_Jan/acov_tid316575_thumb.jpg)

*Artist: Demorphed
*Album: Creation Of A War Machine
*Year: 2019
*Genre: Old School Death Metal
*Country: Germany (IMG:https://metalarea.org/forum/style_images/flags/Germany.png)
*Format: mp3@CBR320kbps
*Size: 97MB

Tracklist:
1. I - The Brutish 01:06
2. Creation of a War Machine 03:58
3. Arc of Doom 05:05
4. Where Hell Dwells 04:36
5. Session in Insanity 03:56
6. New Age of Terror 03:57
7. Juggle Thy Flesh (Son of Goran) 04:35
8. Downfall to Xibalba 04:19
9. II - Into the Deep 00:54
10. Drown 07:52
******************************
Total playing time: 40:18




Extended info
Tina G. Bass
Markus H. Drums
Tobias R. Guitars
Axel B. Guitars
Frank S. Vocals


Technical info
(IMG:https://metalarea.org/images/spectrogram/2019_Jan/5bc7a02414dda7565f93a58c5d31afee.png)
Input File: Demorphed - Creation of a War Machine - 03. Arc of Doom.mp3
Channels : 2
Sample Rate : 44100
Precision : 16-bit
Duration : 00:05:05.81 = 13486177 samples = 22935.7 CDDA sectors
File Size : 12.7M
Bit Rate : 332k
Sample Encoding: MPEG audio (layer I, II or III)
Comments :
Title=Arc of Doom
Artist=Demorphed
Album=Creation of a War Machine
Tracknumber=03
Year=2019
Genre=Metal



Register


Go to the top of the page
  Insert nick Quick quote
+Quote Post
 
Start new topic
Replies (1 - 6)
post Jan 27 2019, 16:23:20
Post #2

Going home. Flying high.
**************
Group: Металариец
Posts: 13,612
Releases: 0
From: The Land of Shadows
On Forums: 17 years 9 months
Thanks: 32873 time(s)
Russian Federation


Отличный средне-темповый дэзняк! Даже удивительно, в нынешнюю эпоху профанации жанра и общей скукотищщи))


Go to the top of the page
  Insert nick Quick quote
+Quote Post
post Jan 27 2019, 19:10:04
Post #3

Правь статус, ####!111
**************
Group: Металариец
Posts: 35,954
Releases: 26795
From: Г.Харьков
On Forums: 12 years 2 weeks
Thanks: 581288 time(s)
Ukraine


Cloud Mail 320
Register


Go to the top of the page
  Insert nick Quick quote
+Quote Post
post Feb 24 2019, 19:01:32
Post #4

кручу наждак
**************
Group: Металариец
Posts: 6,554
Releases: 111
From: Самара
On Forums: 14 years 2 weeks
Thanks: 5112 time(s)
Russian Federation


Жирно, мощно и даже не без мелодизма.
Go to the top of the page
  Insert nick Quick quote
+Quote Post
post Sep 30 2021, 02:57:28
Post #5

Маньяк
**********
Group: Металариец
Posts: 1,175
Releases: 0
On Forums: 5 years 10 months
Thanks: 46 time(s)
Serbia


PLS REUPLOAD
Go to the top of the page
  Insert nick Quick quote
+Quote Post
post Oct 7 2021, 00:45:18
Post #6

Маньяк
**********
Group: Металариец
Posts: 1,175
Releases: 0
On Forums: 5 years 10 months
Thanks: 46 time(s)
Serbia


PLS REUPLOAD
Go to the top of the page
  Insert nick Quick quote
+Quote Post
post May 13 2022, 18:41:18
Post #7

Black is beautiful
***********
Group: Металариец
Posts: 1,985
Releases: 4
On Forums: 12 years 2 months
Thanks: 445 time(s)
Unknown


QUOTE(Pobelir @ Oct 7 2021, 01:45:18) *
PLS REUPLOAD

from the web:
Register


Thanks:
(1) Xtohar,
Go to the top of the page
  Insert nick Quick quote
+Quote Post

Reply to this topicStart new topic
2 User(s) are reading this topic (2 Guests and 0 Anonymous Users)
0 Members:

 



- Lo-Fi Version Support form
Copyrights and abuse reports form
Time is now: 28th May 2024 - 02:20:50