Welcome Guest ( Log In | Register )

> 

Здесь релизы с живыми прямыми ссылками на lossless

> Soen - Lotus (2019), Progressive Metal/Rock (D5)
post Jan 30 2019, 09:13:23
Post #1

Аннигилятор пивА
Group Icon
Group: V.I.P
Posts: 52,360
Releases: 16550
From: Koenigsberg - TILZIT
On Forums: 15 years 4 weeks
Thanks: 367729 time(s)
Russian Federation


(IMG:https://metalarea.org/images/audiocovers/2019_Jan/acov_tid316706_thumb.jpg)

*Artist: Soen
*Album: Lotus
*Year: 2019
*Genre: Progressive Metal/Rock
*Country: Sweden (IMG:https://metalarea.org/forum/style_images/flags/Sweden.png)
*Format: mp3@CBR320kbps
*Size: 124MB

Tracklist:
01. Opponent
02. Lascivious
03. Martyrs
04. Lotus
05. Covenant
06. Penance
07. River
08. Rival
09. Lunacy
******************************
Total playing time: 54:12

Preview 1


Extended info
Stefan Stenberg – Bass
Cody Ford – Guitar
Lars Åhlund – Keys (Organ, Rhodes), Guitar
Joel Ekelöf – Vocals
Martin Lopez – Drums, percussion (AMON AMARTH, OPETH)




Technical info
(IMG:https://metalarea.org/images/spectrogram/2019_Jan/efe3c49c84b179df46a974033e27c162.png)
Input File: 02 Lascivious.mp3
Channels : 2
Sample Rate : 44100
Precision : 16-bit
Duration : 00:05:37.26 = 14873254 samples = 25294.6 CDDA sectors
File Size : 13.5M
Bit Rate : 320k
Sample Encoding: MPEG audio (layer I, II or III)
Comments :
Title=Lascivious
Artist=Soen
Album=Lotus
Tracknumber=2/9
Year=2019
Genre=Progressive Rock
Discnumber=1/1



Register


Go to the top of the page
  Insert nick Quick quote
+Quote Post
2 Pages V  < 1 2  
Start new topic
Replies (30 - 38)
post Mar 8 2019, 23:35:04
Post #31

Мегаманьяк
***********
Group: Металариец
Posts: 1,952
Releases: 0
On Forums: 12 years 3 months
Thanks: 813 time(s)
Antarctica


ЦИТАТА(Tarelka @ Mar 8 2019, 23:08:19) *
Музон норм, клип чума


(IMG:https://memepedia.ru/wp-content/uploads/2017/04/чувак-это-рэпчик.jpg)
Чувак, это попчик


Thanks:
Go to the top of the page
  Insert nick Quick quote
+Quote Post
post Sep 28 2019, 00:05:46
Post #32

FOLK METAL FEVER
**************
Group: Металариец
Posts: 2,222
Releases: 6
From: Kyiv
On Forums: 13 years 7 months
Thanks: 290 time(s)
Ukraine


Lascivious - мега хитяра!


Thanks:
Go to the top of the page
  Insert nick Quick quote
+Quote Post
post Dec 20 2019, 09:40:02
Post #33

:3
**************
Group: Металариец
Posts: 4,722
Releases: 104
From: Novosibirsk
On Forums: 13 years 9 months
Thanks: 3832 time(s)
Russian Federation


Внезапно, местами весьма похоже на позднюю Katatonia (IMG:style_emoticons/default/17.gif)
Буду слушать.
Go to the top of the page
  Insert nick Quick quote
+Quote Post
post Feb 1 2020, 02:40:46
Post #34

Ъ
**************
Group: Металариец
Posts: 10,650
Releases: 9
On Forums: 12 years 5 months
Thanks: 2170 time(s)
Sweden


Отличный альбом, очень много его слушал после выхода, сначала не отписывался потому что не мог понять насколько долгоиграющая пластинка, а потом он мне поднадоел...сейчас спустя год прет как следует, так что первые чувства не обманули. Умеротворяющая, интересная, умная музыка с вокалом идеально вписанным в музыку. В общем рекомендуется всем и каждому кто любит прог и мелодичную музыку, которая заставляет тебя погрустить и призадуматься.


Thanks:
Go to the top of the page
  Insert nick Quick quote
+Quote Post
post Jan 9 2021, 21:39:29
Post #35

ПОЛИТИК
**************
Group: Металариец
Posts: 5,666
Releases: 4
From: P T
On Forums: 14 years 7 months
Thanks: 382 time(s)
Canada


Лучший их альбом, однозначно.
Особенно выделю Лотус, Ковенант, унц Мартирс.
Joel сиьный вокалила, был на концерте, подтверждаю
(IMG:style_emoticons/default/25.gif)
Go to the top of the page
  Insert nick Quick quote
+Quote Post
post Feb 6 2021, 09:54:44
Post #36

Наливай!
**************
Group: Металариец
Posts: 6,010
Releases: 27
From: Москва-Бибирево
On Forums: 13 years 3 months
Thanks: 3113 time(s)
Russian Federation


Запилите флачог
Go to the top of the page
  Insert nick Quick quote
+Quote Post
post Feb 7 2021, 14:01:44
Post #37

Group Icon
Group: S-moderation team
Posts: 21,195
Releases: 1443
From: Zagreb
On Forums: 10 years 3 months
Thanks: 97865 time(s)
Croatia


Register


Thanks:
Go to the top of the page
  Insert nick Quick quote
+Quote Post
post Feb 20 2021, 13:01:40
Post #38

Group: Подсевший
Posts: 47
Releases: 0
On Forums: 12 years 6 months
Thanks: 6 time(s)
Russian Federation



Обновить бы 320
Go to the top of the page
  Insert nick Quick quote
+Quote Post
post Feb 20 2021, 15:58:34
Post #39

Group Icon
Group: S-moderation team
Posts: 21,195
Releases: 1443
From: Zagreb
On Forums: 10 years 3 months
Thanks: 97865 time(s)
Croatia


Register


Thanks:
(1) Olethros,
Go to the top of the page
  Insert nick Quick quote
+Quote Post

2 Pages V  < 1 2
Reply to this topicStart new topic
2 User(s) are reading this topic (2 Guests and 0 Anonymous Users)
0 Members:

 



- Lo-Fi Version Support form
Copyrights and abuse reports form
Time is now: 25th June 2021 - 10:21:05