Welcome Guest ( Log In | Register )

> Lęk - The Eerie One [ep] (2019), Black Metal
post Feb 1 2019, 19:30:17
Post #1
BAN
Banned till
Aug 21 2022, 13:53:24



(IMG:https://metalarea.org/images/audiocovers/2019_Feb/acov_tid316874_thumb.jpg)

*Artist: Lęk
*Album: The Eerie One [ep]
*Year: 2019
*Genre: Black Metal
*Country: Poland (IMG:https://metalarea.org/forum/style_images/flags/Poland.png)
*Format: mp3@CBR320kbps
*Size: 34MB

Tracklist:
01. Forgotten Lakes
02. Magical Void
03. Gody
******************************
Total playing time: 14:48




Extended info
Taurus - Bass
Oskar - Dums (Snake Eyes, ex-The No-Mads, ex-Nomads)
Pure - Guitars (Wolf Omega, ex-Misterium Nocy)
Vargnatt - Vocals (Nuclear Thorn, ex-Erebeth, ex-Misterium Nocy, Bloodwood, Cholat Siahl, Culthum, Czeluść, Leszy, Painland, Templum Umbrae, Zorza, ex-Wolf Omega, ex-Szubienica)


Technical info
(IMG:https://metalarea.org/images/spectrogram/2019_Feb/cd1a01c0a0ad76e1075abcd0f53904b9.png)
Input File: 01. Forgotten Lakes.mp3
Channels : 2
Sample Rate : 44100
Precision : 16-bit
Duration : 00:04:39.37 = 12320305 samples = 20952.9 CDDA sectors
File Size : 11.2M
Bit Rate : 321k
Sample Encoding: MPEG audio (layer I, II or III)
Comments :
Title=Forgotten Lakes
Artist=Lęk
Album=The Eerie One
Tracknumber=1
Year=2019
Discnumber=1



Register


Go to the top of the page
  Insert nick Quick quote
+Quote Post
 
Start new topic
Replies (1 - 6)
post Feb 1 2019, 19:55:30
Post #2
BAN
Banned till
Aug 21 2022, 13:53:24



MIRROR
Register



Go to the top of the page
  Insert nick Quick quote
+Quote Post
post Jun 27 2019, 16:31:08
Post #3

Cultist
**************
Group: Металариец
Posts: 4,620
Releases: 1336
From: Koenigsberg
On Forums: 15 years 7 months
Thanks: 9379 time(s)
Russian Federation


Чешуя.
Go to the top of the page
  Insert nick Quick quote
+Quote Post
post Jun 27 2019, 19:15:18
Post #4

Семь Литров
*******
Group: Металариец
Posts: 702
Releases: 0
From: Vilnius
On Forums: 15 years 5 months
Thanks: 257 time(s)
Lithuania


Предыдущий альбом заставил заценить и приобрести всё их раннее творчество,-оч интересно слухануть новую епишку,-спасибо
Go to the top of the page
  Insert nick Quick quote
+Quote Post
post Mar 7 2021, 19:02:56
Post #5

Правь статус, ####!111
**************
Group: Металариец
Posts: 4,159
Releases: 1
From: Рейх
On Forums: 15 years 11 months
Thanks: 1008 time(s)
Ukraine


обновить
Go to the top of the page
  Insert nick Quick quote
+Quote Post
post Mar 14 2021, 12:36:19
Post #6

Правь статус, ####!111
Group Icon
Group: S-moderation team
Posts: 22,058
Releases: 1443
On Forums: 11 years 5 months
Thanks: 111944 time(s)
Unknown


Register


Go to the top of the page
  Insert nick Quick quote
+Quote Post
post May 14 2022, 08:21:11
Post #7

Пять Литров
*****
Group: Металариец
Posts: 493
Releases: 0
On Forums: 6 years 3 weeks
Thanks: 50 time(s)
Unknown


(IMG:style_emoticons/default/20.gif) (IMG:style_emoticons/default/20.gif)
Go to the top of the page
  Insert nick Quick quote
+Quote Post

Reply to this topicStart new topic
1 User(s) are reading this topic (1 Guests and 0 Anonymous Users)
0 Members:

 



- Lo-Fi Version Support form
Copyrights and abuse reports form
Time is now: 15th August 2022 - 23:39:58