Welcome Guest ( Log In | Register )

> Dysrancor - Dark Writings (2019), Brutal Death/Symphonic Black Metal
post Feb 3 2019, 03:24:50
Post #1

Serial Uploader
Group Icon
Group: V.I.P
Posts: 37,609
Releases: 35781
From: Lithuania
On Forums: 13 years 1 month
Thanks: 433239 time(s)
Lithuania


(IMG:http://metalarea.org/images/audiocovers/2019_Feb/acov_tid316949_thumb.jpg)

*Artist: Dysrancor
*Album: Dark Writings
*Year: 2019
*Genre: Brutal Death/Symphonic Black Metal
*Country: Belgium (IMG:http://metalarea.org/forum/style_images/flags/Belgium.png)
*Format: mp3@CBR320kbps
*Size: 111MB

Tracklist:
01. Mirror Shards (Intro)
02. Through the Infected Eyes
03. Blackened Cross
04. Mechanical Dementia
05. Dystopia (Interlude)
06. Bloodbath
07. Room 217
08. Rancor (Interlude)
09. When Only Regrets Remain
10. You'll Float Too
11. Until the End
12. The Running Man (Instrumental)
******************************
Total playing time: 47:53

Technical info
(IMG:http://metalarea.org/images/spectrogram/2019_Feb/73cb3bd29bd1d7b9f2617fe57b8975c8.png)
Input File: 02. Through the Infected Eyes.mp3
Channels : 2
Sample Rate : 44100
Precision : 16-bit
Duration : 00:04:44.54 = 12548390 samples = 21340.8 CDDA sectors
File Size : 11.5M
Bit Rate : 323k
Sample Encoding: MPEG audio (layer I, II or III)
Comments :
Title=Through the Infected Eyes
Artist=Dysrancor
Album=Dark Writings
Tracknumber=2/12
Year=2019



Register


Go to the top of the page
  Insert nick Quick quote
+Quote Post
 
Start new topic
Replies (1 - 3)
post Feb 3 2019, 06:12:19
Post #2

Социопат.Маргинал. Мизантроп.Нигилист. Перверзный нарциссист.
**************
Group: Металариец
Posts: 5,571
Releases: 666
From: Город-герой Ленинград
On Forums: 10 years 5 months
Thanks: 6494 time(s)
Russian Federation


Быдлокор.


Thanks:
Go to the top of the page
  Insert nick Quick quote
+Quote Post
post Feb 3 2019, 13:51:06
Post #3

Маньяк
**********
Group: Металариец
Posts: 1,119
Releases: 0
On Forums: 10 years 2 months
Thanks: 539 time(s)
Unknown




Thanks:
Go to the top of the page
  Insert nick Quick quote
+Quote Post
post Feb 18 2019, 01:14:46
Post #4

Правь статус, ####!111
**************
Group: Металариец
Posts: 4,412
Releases: 17
From: Holland
On Forums: 15 years 1 month
Thanks: 1448 time(s)
Netherlands


Отдаленно похожи на Oracles (но жеский вокал только в одной песне, вроде), но как ни странно отношения к ним не имеют. Да и по превью вроде совсем не плохи.
Go to the top of the page
  Insert nick Quick quote
+Quote Post

Reply to this topicStart new topic
2 User(s) are reading this topic (2 Guests and 0 Anonymous Users)
0 Members:

 



- Lo-Fi Version Support form
Copyrights and abuse reports form
Time is now: 4th August 2021 - 13:26:00