Welcome Guest ( Log In | Register )

> Amthrÿa - Incision Of Gem (2018), Progressive Black/Death Metal
post Feb 7 2019, 09:11:50
Post #1

Аннигилятор пивА
Group Icon
Group: V.I.P
Posts: 52,360
Releases: 16550
From: Koenigsberg - TILZIT
On Forums: 14 years 1 week
Thanks: 365295 time(s)
Russian Federation


(IMG:https://metalarea.org/images/audiocovers/2019_Feb/acov_tid317187_thumb.jpg)

*Artist: Amthrÿa
*Album: Incision Of Gem
*Year: 2018
*Genre: Progressive Black/Death Metal
*Country: Italy (IMG:https://metalarea.org/forum/style_images/flags/Italy.png)
*Format: mp3@CBR320kbps
*Size: 143MB

Tracklist:
01. Mist of Perdition
02. Eternal Condition
03. Incision
04. Anesthesia Survival
05. Human Confrontation
06. Ebony Gem
07. Reflections
08. Letters to my Dears - Thoughts of a Lost Man
09. P.E.A.C.E.
10. Drowning in the Grudge
11. At the World's End
12. Incision of Gem
******************************
Total playing time: 1:00:08



Extended info
Vins - Bass
Ale MsT - Drums
Barry - Guitars (lead), Vocals
Kasumi Onryo - Vocals (2017-present) See also: ex-Opera IX, ex-Godless Entity


Technical info
(IMG:https://metalarea.org/images/spectrogram/2019_Feb/0bba3205a8989e1dabef4d521c680511.png)
Input File: 02. Eternal Condition.mp3
Channels : 2
Sample Rate : 44100
Precision : 16-bit
Duration : 00:05:57.46 = 15763810 samples = 26809.2 CDDA sectors
File Size : 14.8M
Bit Rate : 331k
Sample Encoding: MPEG audio (layer I, II or III)
Comments :
Title=Æternal Condition
Artist=Amthrya
Album=Incision of Gem
Tracknumber=2
Year=2018



Register


Go to the top of the page
  Insert nick Quick quote
+Quote Post
 
Start new topic
Replies (1 - 3)
post Feb 7 2019, 13:52:43
Post #2

Три Литра
***
Group: Завсегдатай
Posts: 273
Releases: 0
From: Россия
On Forums: 8 years 3 months
Thanks: 90 time(s)
Russian Federation


Очередной обман пользователей

released November 27, 2018



Thanks:
Go to the top of the page
  Insert nick Quick quote
+Quote Post
post Feb 7 2019, 13:56:55
Post #3

Правь статус, ####!111
**************
Group: Металариец
Posts: 46,493
Releases: 718
On Forums: 11 years 4 days
Thanks: 39033 time(s)
Russian Federation


ЦИТАТА(Kehl05 @ Feb 7 2019, 16:52:43) *
released November 27, 2018


Да какая разница?



Thanks:
Go to the top of the page
  Insert nick Quick quote
+Quote Post
post Feb 7 2019, 13:57:49
Post #4

Аннигилятор пивА
Group Icon
Group: V.I.P
Posts: 52,360
Releases: 16550
From: Koenigsberg - TILZIT
On Forums: 14 years 1 week
Thanks: 365295 time(s)
Russian Federation


mirror
Register

Go to the top of the page
  Insert nick Quick quote
+Quote Post

Reply to this topicStart new topic
2 User(s) are reading this topic (2 Guests and 0 Anonymous Users)
0 Members:

 



- Lo-Fi Version Support form
Copyrights and abuse reports form
Time is now: 5th June 2020 - 19:47:08