Welcome Guest ( Log In | Register )

> Örmagna - Örmagna (2019), Black Metal
post Feb 7 2019, 10:01:41
Post #1

Правь статус, ####!111
**************
Group: Металариец
Posts: 2,336
Releases: 1887
From: Praha
On Forums: 7 years 5 months
Thanks: 50254 time(s)
Czech Republic


(IMG:http://metalarea.org/images/audiocovers/2019_Feb/acov_tid317195_thumb.jpg)

*Artist: Örmagna
*Album: Örmagna
*Year: 2019
*Genre: Black Metal
*Country: Iceland (IMG:http://metalarea.org/forum/style_images/flags/Iceland.png)
*Format: mp3@CBR320kbps
*Size: 96MB

Tracklist:
1. Intro 01:27
2. Háskinn í Seljunum 08:43
3. Náladoði 04:32
4. Örmagna 04:09
5. 3 ár í dýflissu 05:57
6. Með lögum skal land brjóta 06:31
7. Dansar saurs og saurlífis 10:05
******************************
Total playing time: 41:24



Extended info
Signal Rex - SIGNAL84


Technical info
(IMG:http://metalarea.org/images/spectrogram/2019_Feb/0a52db7a0f944ef723b04f93bc73e45d.png)
Input File: 02. Háskinn Í Seljunum.mp3
Channels : 2
Sample Rate : 44100
Precision : 16-bit
Duration : 00:08:43.63 = 23091951 samples = 39272 CDDA sectors
File Size : 21.0M
Bit Rate : 321k
Sample Encoding: MPEG audio (layer I, II or III)
Comments :
Title=Háskinn í Seljunum
Artist=Örmagna
Album=Örmagna
Tracknumber=02/07
Year=2019
Genre=Black Metal



Register


Go to the top of the page
  Insert nick Quick quote
+Quote Post
 
Start new topic
Replies (1 - 2)
post Jun 15 2020, 20:58:47
Post #2

Восемь Литров
********
Group: Металариец
Posts: 858
Releases: 0
On Forums: 13 years 11 months
Thanks: 385 time(s)
Poland


очередная хорошая работа прошла незамеченной для меня с прошлого года (IMG:style_emoticons/default/20.gif)


Thanks:
(1) sabr,
Go to the top of the page
  Insert nick Quick quote
+Quote Post
post Jun 15 2020, 21:54:04
Post #3

Пять Литров
*****
Group: Металариец
Posts: 493
Releases: 0
From: Vilnius
On Forums: 14 years 7 months
Thanks: 165 time(s)
Lithuania


Кстати да,-не с первого раза вставляет.
Go to the top of the page
  Insert nick Quick quote
+Quote Post

Reply to this topicStart new topic
2 User(s) are reading this topic (2 Guests and 0 Anonymous Users)
0 Members:

 



- Lo-Fi Version Support form
Copyrights and abuse reports form
Time is now: 25th September 2021 - 01:30:40