Welcome Guest ( Log In | Register )

> Joyless Euphoria - Dreaming In Ultraviolet (2019), Post-Black Metal
post Feb 14 2019, 14:56:30
Post #1

Serial Uploader
Group Icon
Group: V.I.P
Posts: 37,601
Releases: 35773
From: Lithuania
On Forums: 13 years 1 week
Thanks: 432810 time(s)
Lithuania


(IMG:https://metalarea.org/images/audiocovers/2019_Feb/acov_tid317597_thumb.jpg)

*Artist: Joyless Euphoria
*Album: Dreaming In Ultraviolet
*Year: 2019
*Genre: Post-Black Metal
*Country: Austria (IMG:https://metalarea.org/forum/style_images/flags/Austria.png)
*Format: mp3@CBR320kbps
*Size: 91MB

Tracklist:
01. Dissociation
02. The Orator
03. Desperate Euphoria Part 1
04. Shoreline
05. Grave Hotel
06. The Rotary
07. About Me
******************************
Total playing time: 39:59



Technical info
(IMG:https://metalarea.org/images/spectrogram/2019_Feb/4354e16ab22027e6c6e3e4e14993297d.png)
Input File: 2 - The Orator.mp3
Channels : 2
Sample Rate : 44100
Precision : 16-bit
Duration : 00:05:43.92 = 15166916 samples = 25794.1 CDDA sectors
File Size : 13.8M
Bit Rate : 321k
Sample Encoding: MPEG audio (layer I, II or III)
Comments :
Title=The Orator
Artist=Joyless Euphoria
Album=Dreaming In Ultraviolet
Tracknumber=2
Year=2019
Genre=Metal
Discnumber=1



Register


Go to the top of the page
  Insert nick Quick quote
+Quote Post
 
Start new topic
Replies (1 - 5)
post Feb 14 2019, 22:39:51    Сейчас играет: The Abyss - Tjanare Af Besten
Post #2

antithesis
**************
Group: Металариец
Posts: 3,362
Releases: 35
From: VRN
On Forums: 11 years 3 weeks
Thanks: 2159 time(s)
Russian Federation


mirror, pls
Go to the top of the page
  Insert nick Quick quote
+Quote Post
post Feb 15 2019, 05:30:34
Post #3

Правь статус, ####!111
**************
Group: Металариец
Posts: 2,462
Releases: 12
From: Canada
On Forums: 14 years 1 week
Thanks: 1687 time(s)
Canada


Go to the top of the page
  Insert nick Quick quote
+Quote Post
post Feb 21 2019, 12:50:22
Post #4

Два Литра
**
Group: Завсегдатай
Posts: 115
Releases: 8
From: RUS Fed.
On Forums: 12 years 2 months
Thanks: 200 time(s)
Russian Federation


Зеркало будет?
Go to the top of the page
  Insert nick Quick quote
+Quote Post
post Mar 9 2019, 18:13:35
Post #5

Семь Литров
*******
Group: Металариец
Posts: 708
Releases: 10
On Forums: 12 years 5 months
Thanks: 162 time(s)
Germany


new mirror please
Go to the top of the page
  Insert nick Quick quote
+Quote Post
post Jun 11 2021, 09:15:09
Post #6

Правь статус, ####!111
**************
Group: Металариец
Posts: 2,795
Releases: 18
From: Eternal darkness
On Forums: 13 years 8 months
Thanks: 7692 time(s)
Russian Federation


Register


Go to the top of the page
  Insert nick Quick quote
+Quote Post

Reply to this topicStart new topic
1 User(s) are reading this topic (1 Guests and 0 Anonymous Users)
0 Members:

 



- Lo-Fi Version Support form
Copyrights and abuse reports form
Time is now: 18th June 2021 - 07:00:27