Welcome Guest ( Log In | Register )

Объявления

* gmail.com упорно продолжает считать почту с нас "unsolicited" и отбивает в том числе и письма активации, поэтому просьба использовать альтернативные почтовые ящики.
------------
* gmail.com continues reject all mail from us as "unsolicited" (activation mails too) therefore please use alternate mail servers.

> 

Здесь релизы с живыми прямыми ссылками на lossless

> Vorga - Radiant Gloom [ep] (2019), Black Metal
post Feb 21 2019, 10:08:50
Post #1

Четыре Литра
****
Group: Металариец
Posts: 398
Releases: 1
On Forums: 13 years 10 months
Thanks: 212 time(s)
Russian Federation


(IMG:https://metalarea.org/images/audiocovers/2019_Feb/acov_tid317934_thumb.jpeg)

*Artist: Vorga
*Album: Radiant Gloom [ep]
*Year: 2019
*Genre: Black Metal
*Country: Germany (IMG:https://metalarea.org/forum/style_images/flags/Germany.png)
*Format: mp3@CBR320kbps
*Size: 52MB

Tracklist:
1. The Black Age 05:01
2. Argil 05:02
3. Divine 06:48
4. Hunger 05:17
******************************
Total playing time: 22:08

(IMG:https://metalarea.org/images/youtube.png)

Technical info
(IMG:https://metalarea.org/images/spectrogram/2019_Feb/a0b6dcbe030a6e079cf0a81e45755708.png)
Input File: Vorga - Radiant Gloom - 01 The Black Age.mp3
Channels : 2
Sample Rate : 44100
Precision : 16-bit
Duration : 00:05:01.84 = 13310924 samples = 22637.6 CDDA sectors
File Size : 12.2M
Bit Rate : 325k
Sample Encoding: MPEG audio (layer I, II or III)
Comments :
Title=The Black Age
Artist=Vorga
Album=Radiant Gloom
Tracknumber=1
Year=2019



Register


Go to the top of the page
  Insert nick Quick quote
+Quote Post
 
Start new topic
Replies (1 - 4)
post Feb 22 2019, 01:53:01
Post #2

Четыре Литра
****
Group: Металариец
Posts: 398
Releases: 1
On Forums: 13 years 10 months
Thanks: 212 time(s)
Russian Federation


В наличии имеется лось.
Go to the top of the page
  Insert nick Quick quote
+Quote Post
post Feb 22 2019, 07:10:28
Post #3
BAN
Banned till
Jun 17 4180, 16:09:14



"я убью тебя, ворга"


Thanks:
(1) Yarri,
Go to the top of the page
  Insert nick Quick quote
+Quote Post
post Dec 9 2019, 18:58:14
Post #4

Два Литра
**
Group: Завсегдатай
Posts: 159
Releases: 2
From: г. Нальчик
On Forums: 11 years 4 months
Thanks: 647 time(s)
Russian Federation


FLAC (Tracks 6) 255 MB
Register



Go to the top of the page
  Insert nick Quick quote
+Quote Post
post Apr 3 2024, 15:31:04
Post #5

Group: Подсевший
Posts: 19
Releases: 0
On Forums: 1 year 3 months
Thanks: 2 time(s)
Spain


Re upload Please.
Может кто-нибудь загрузить еще раз?
Go to the top of the page
  Insert nick Quick quote
+Quote Post

Reply to this topicStart new topic
2 User(s) are reading this topic (2 Guests and 0 Anonymous Users)
0 Members:

 



- Lo-Fi Version Support form
Copyrights and abuse reports form
Time is now: 23rd April 2024 - 08:59:34