Welcome Guest ( Log In | Register )

> Walls Of Blood - Imperium (2019), Heavy/Thrash Metal
post Feb 21 2019, 11:24:07
Post #1

Serial Uploader
Group Icon
Group: V.I.P
Posts: 36,609
Releases: 34797
From: Lithuania
On Forums: 11 years 6 months
Thanks: 407556 time(s)
Lithuania


(IMG:https://metalarea.org/images/audiocovers/2019_Feb/acov_tid317944_thumb.jpg)

*Artist: Walls Of Blood
*Album: Imperium
*Year: 2019
*Genre: Heavy/Thrash Metal
*Country: United States (IMG:https://metalarea.org/forum/style_images/flags/United%20States.png)
*Format: mp3@CBR320kbps
*Size: 109MB

Tracklist:
01. Leave This World Behind (feat. Nils K. Rue)
02. Discordia (feat. Todd La Torre)
03. Waiting To Die (feat. Chuck Billy)
04. Blood Sacrifice Ritual (feat. Henning Nasse)
05. Tarnished Dream (feat. Tim Owens)
06. Walls Of Blood (feat. Matt Cuthbertson)
07. The Fault Of Man (feat. Henning Basse)
08. Dark Lords Of Sleep (feat. Dan Cleary)
09. Junkhead (ALICE IN CHAINS cover) (feat. Lance Harvill)
10. Seven Spirits (feat. Henning Basse)
******************************
Total playing time: 48:11

Technical info
(IMG:https://metalarea.org/images/spectrogram/2019_Feb/56b95673dcd71e10201040e3ccc38f42.png)
Input File: 2 - Discordia.mp3
Channels : 2
Sample Rate : 44100
Precision : 16-bit
Duration : 00:04:45.17 = 12575909 samples = 21387.6 CDDA sectors
File Size : 11.5M
Bit Rate : 324k
Sample Encoding: MPEG audio (layer I, II or III)
Comments :
Title=Discordia
Artist=Walls Of Blood
Album=Imperium
Tracknumber=2
Year=2019
Genre=Metal
Discnumber=1



Register


Go to the top of the page
  Insert nick Quick quote
+Quote Post
 
Start new topic
Replies (1 - 5)
post Feb 21 2019, 12:34:31
Post #2

Аннигилятор пивА
Group Icon
Group: V.I.P
Posts: 52,360
Releases: 16555
From: Koenigsberg - TILZIT
On Forums: 13 years 6 months
Thanks: 363304 time(s)
Russian Federation


Register


Go to the top of the page
  Insert nick Quick quote
+Quote Post
post Feb 21 2019, 14:18:44
Post #3

hearer & reader
**************
Group: Металариец
Posts: 8,236
Releases: 111
From: Moscow
On Forums: 12 years 3 months
Thanks: 7772 time(s)
Russian Federation


Glen Drover нафигачил. Надо слушать.
Go to the top of the page
  Insert nick Quick quote
+Quote Post
post Feb 21 2019, 14:34:22
Post #4

Два кусочека кавбаски
***
Group: Завсегдатай
Posts: 253
Releases: 29
From: Колыбель металла
On Forums: 12 years 1 month
Thanks: 394 time(s)
Russian Federation


ядиск не хочет -скачать нельзя.
мазила с мейла не качает - не знаю, почему.
можно еще куда перезалить ?
Go to the top of the page
  Insert nick Quick quote
+Quote Post
post Feb 22 2019, 18:26:09
Post #5

Правь статус, ####!111
**************
Group: Металариец
Posts: 2,759
Releases: 8
From: Dnipro
On Forums: 11 years 5 months
Thanks: 863 time(s)
Ukraine


ЦИТАТА(roaroma @ Feb 21 2019, 15:34:22) *
ядиск не хочет -скачать нельзя.
мазила с мейла не качает - не знаю, почему.
можно еще куда перезалить ?

Ставь VPN на браузер и качай что хочешь.
Go to the top of the page
  Insert nick Quick quote
+Quote Post
post Feb 25 2019, 04:35:53
Post #6

Group: Подсевший
Posts: 21
Releases: 0
On Forums: 11 years 6 months
Thanks: 7 time(s)
Russian Federation


Walls Of Blood с вокалистом Untimely Demise - просто ацкий огонь (IMG:style_emoticons/default/metaler.gif) Жаль не все её отслушают, ибо всё остальное, к сожалению, такая унылая серость, что хочется вырубить поскорее.
Go to the top of the page
  Insert nick Quick quote
+Quote Post

Reply to this topicStart new topic
2 User(s) are reading this topic (2 Guests and 0 Anonymous Users)
0 Members:

 



- Lo-Fi Version Support form
Copyrights and abuse reports form
Time is now: 13th December 2019 - 11:43:28