IPB WARNING [2] gmdate() expects parameter 2 to be integer, float given (Line: 4264 of /sources/ipsclass.php)
 Abyssic - High The Memory (2019) - Metal Area - Extreme Music Portal

Welcome Guest ( Log In | Register )

> 

Здесь релизы с живыми прямыми ссылками на lossless

> Abyssic - High The Memory (2019), Symphonic Doom/Death Metal
post Feb 21 2019, 12:36:27
Post #1

Аннигилятор пивА
Group Icon
Group: V.I.P
Posts: 52,360
Releases: 16555
From: Koenigsberg - TILZIT
On Forums: 13 years 6 months
Thanks: 363307 time(s)
Russian Federation


(IMG:https://metalarea.org/images/audiocovers/2019_Feb/acov_tid317956_thumb.jpg)

*Artist: Abyssic
*Album: High The Memory
*Year: 2019
*Genre: Symphonic Doom/Death Metal
*Country: Norway (IMG:https://metalarea.org/forum/style_images/flags/Norway.png)
*Format: mp3@CBR320kbps
*Size: 179MB

Tracklist:
1. Adornation 08:11
2. High the Memory 20:39
3. Transition Consent 12:38
4. Where My Pain Lies 20:37
5. Dreams Become Flesh 15:12
******************************
Total playing time: 1:17:21



Extended info
Double LP gatefold with awesome artwork from Mitchell Nolte

Abyssic have received awesome reactions to their liveshows with a mosaic of visual semblance on stage like Contrabass, Mellotron and Moog.

Memnoch - Vocals, Guitars, Bass (1997-present), Vocals, Bass, Contrabass (2012-present) See also: Susperia, ex-Lost in Time, ex-Metadox, ex-Vanaheim, ex-Seven Sins, Antiqva, Art of Departure, ex-Black Comedy, ex-Old Man's Child
André Aaslie - Keyboards, Orchestrations (2012-present) See also: Funeral, Gromth, Images at Twilight, Profane Burial
Elvorn - Guitars (2013-present) See also: Susperia, Insidious Disease, ex-Ringnevond, ex-Vanaheim, ex-Seven Sins
Makhashanah - Bass, Vocals (additional) (2016-present) See also: Asagraum, ex-Sirenia, ex-Tiamat, ex-Lazy
Tjodalv - Drums (2017-present) See also: Gromth, Susperia, ex-Black Comedy, ex-Requiem, ex-Seven Sins, ex-Dimmu Borgir, ex-Old Man's Child


Technical info
(IMG:https://metalarea.org/images/spectrogram/2019_Feb/626ef547e226d2db2ef6dc102e953cce.png)
Input File: 1 - Adornation.mp3
Channels : 2
Sample Rate : 44100
Precision : 16-bit
Duration : 00:08:11.94 = 21694510 samples = 36895.4 CDDA sectors
File Size : 19.8M
Bit Rate : 322k
Sample Encoding: MPEG audio (layer I, II or III)
Comments :
Title=Adornation
Artist=Abyssic
Album=High the Memory
Tracknumber=1
Year=2019
Genre=Rock/Hard Rock/Metal
Discnumber=1



Register


Go to the top of the page
  Insert nick Quick quote
+Quote Post
 
Start new topic
Replies (1 - 5)
post Feb 21 2019, 15:01:34
Post #2

Аннигилятор пивА
Group Icon
Group: V.I.P
Posts: 52,360
Releases: 16555
From: Koenigsberg - TILZIT
On Forums: 13 years 6 months
Thanks: 363307 time(s)
Russian Federation


80 minutes of epic orchestral doom/ death metal from musicians known from such acts as Susperia, Dimmu Borgir, Sirenia and Funeral.
Abyssic convey sombre funeral doom draped in Norwegian black metal majesty and sophisticated 70's progressive rock.
Low-tuned sinister riffs and discerning orchestration for fans of Septic Flesh, My Dying Bride and Shape Of Despair.

mirror
Register




Go to the top of the page
  Insert nick Quick quote
+Quote Post
post Feb 22 2019, 18:12:39
Post #3

Правь статус, ####!111
**************
Group: Металариец
Posts: 2,759
Releases: 8
From: Dnipro
On Forums: 11 years 5 months
Thanks: 863 time(s)
Ukraine


Да это просто праздник какой то, предыдущий у них был просто мега зачетным.
Go to the top of the page
  Insert nick Quick quote
+Quote Post
post Mar 31 2019, 02:48:31
Post #4
BAN
Banned till



Очередной шедевр. Кто бы сомневался, хотя, сейчас, даже монстры стиля умудряются выпускать низкосортный материал.
Go to the top of the page
  Insert nick Quick quote
+Quote Post
post Jul 17 2019, 15:16:45
Post #5

Правь статус, ####!111
**************
Group: Металариец
Posts: 3,685
Releases: 11
From: Москва и МО
On Forums: 13 years 5 months
Thanks: 972 time(s)
Russian Federation


Альбом крутой, единственное, слегка затянутый (шутка ли почти 80 минут), особенно трэк Where My Pain Lies, где один и тот же (очень посредственный и даже плохой) рифф повторяется уж очень много раз.
Почему-то вызывает ассоциации с Monolithe, особенно с последними работами. Слушается все это классно.
Go to the top of the page
  Insert nick Quick quote
+Quote Post
post Aug 25 2019, 11:54:28
Post #6


Group Icon
Group: S-moderation team
Posts: 12,910
Releases: 1439
From: Zagreb
On Forums: 8 years 9 months
Thanks: 56102 time(s)
Croatia


Register


Thanks:
Go to the top of the page
  Insert nick Quick quote
+Quote Post

Reply to this topicStart new topic
2 User(s) are reading this topic (2 Guests and 0 Anonymous Users)
0 Members:

 



- Lo-Fi Version Support form
Copyrights and abuse reports form
Time is now: 14th December 2019 - 11:07:37