Welcome Guest ( Log In | Register )

> Lysithea - Star-Crossed (2019), Progressive/Melodic Doom Metal (D7)
post Feb 21 2019, 12:58:04
Post #1

Serial Uploader
Group Icon
Group: V.I.P
Posts: 37,608
Releases: 35780
From: Lithuania
On Forums: 13 years 1 month
Thanks: 433174 time(s)
Lithuania


(IMG:https://metalarea.org/images/audiocovers/2019_Feb/acov_tid317966_thumb.jpg)

*Artist: Lysithea
*Album: Star-Crossed
*Year: 2019
*Genre: Progressive/Melodic Doom Metal
*Country: New Zealand (IMG:https://metalarea.org/forum/style_images/flags/New%20Zealand.png)
*Format: mp3@CBR320kbps
*Size: 108MB

Tracklist:
1. An Empty Throne
2. Away
3. The Longing
4. Celeste
5. Unearthly Burial
6. Fever Dream
******************************
Total playing time: 47:15



(IMG:https://metalarea.org/images/youtube.png)

Technical info
(IMG:https://metalarea.org/images/spectrogram/2019_Feb/382c998cbfbcb00c67b797ad6718e675.png)
Input File: 2 - Away.mp3
Channels : 2
Sample Rate : 44100
Precision : 16-bit
Duration : 00:07:38.08 = 20201416 samples = 34356.1 CDDA sectors
File Size : 18.4M
Bit Rate : 322k
Sample Encoding: MPEG audio (layer I, II or III)
Comments :
Title=Away
Artist=Lysithea
Album=Star-Crossed
Tracknumber=2
Year=2019
Genre=Metal
Discnumber=1



Register


Go to the top of the page
  Insert nick Quick quote
+Quote Post
 
Start new topic
Replies (1 - 5)
post Feb 21 2019, 13:29:45
Post #2

Аннигилятор пивА
Group Icon
Group: V.I.P
Posts: 52,360
Releases: 16550
From: Koenigsberg - TILZIT
On Forums: 15 years 2 months
Thanks: 367928 time(s)
Russian Federation




107/320
Register



Go to the top of the page
  Insert nick Quick quote
+Quote Post
post Feb 22 2019, 17:51:09
Post #3

Common dweller of hell
**************
Group: Металариец
Posts: 3,880
Releases: 12
From: Dnipro
On Forums: 13 years 2 weeks
Thanks: 1522 time(s)
Ukraine


Достаточно известная группа, альбомы 2014 и 2015 годов были очень не плохи (IMG:style_emoticons/default/dooo.gif)
Все таки стиль бы еще добавил два слова: Death Metal.
Прогрессива не услышал, скорей Atmospheric Melodic Death/Doom Metal
Go to the top of the page
  Insert nick Quick quote
+Quote Post
post Feb 28 2019, 13:29:44
Post #4

Маньяк
**********
Group: Металариец
Posts: 1,091
Releases: 4
From: Харьков
On Forums: 12 years 11 months
Thanks: 403 time(s)
Ukraine


Именно, дэт тут на первом месте (IMG:style_emoticons/default/dooo.gif)
Go to the top of the page
  Insert nick Quick quote
+Quote Post
post Mar 17 2019, 04:56:48
Post #5

Ъ
**************
Group: Металариец
Posts: 10,670
Releases: 9
On Forums: 12 years 6 months
Thanks: 2176 time(s)
Sweden


На раз послушать можно.
Go to the top of the page
  Insert nick Quick quote
+Quote Post
post Jul 22 2021, 13:51:08
Post #6

Old School Metal
**************
Group: Металариец
Posts: 3,950
Releases: 0
From: г. Минск
On Forums: 12 years 4 months
Thanks: 9280 time(s)
Belarus



Lysithea - Star-Crossed (2019)


(IMG:https://c.radikal.ru/c01/2107/77/fb67ac5a4ac0.jpg)


Format: mp3@320kbps (Lame 3.93.1) + Covers
Register

Lossless: FLAC (image+.cue+.log) + Covers
Register



Thanks:
(2) Buregon, Deni,
Go to the top of the page
  Insert nick Quick quote
+Quote Post

Reply to this topicStart new topic
2 User(s) are reading this topic (2 Guests and 0 Anonymous Users)
0 Members:

 



- Lo-Fi Version Support form
Copyrights and abuse reports form
Time is now: 27th July 2021 - 19:08:12