Welcome Guest ( Log In | Register )

> Lysithea - Star-Crossed (2019), Progressive/Melodic Doom Metal (D7)
post Feb 21 2019, 12:58:04
Post #1

Serial Uploader
Group Icon
Group: V.I.P
Posts: 36,595
Releases: 34784
From: Lithuania
On Forums: 11 years 6 months
Thanks: 407349 time(s)
Lithuania


(IMG:https://metalarea.org/images/audiocovers/2019_Feb/acov_tid317966_thumb.jpg)

*Artist: Lysithea
*Album: Star-Crossed
*Year: 2019
*Genre: Progressive/Melodic Doom Metal
*Country: New Zealand (IMG:https://metalarea.org/forum/style_images/flags/New%20Zealand.png)
*Format: mp3@CBR320kbps
*Size: 108MB

Tracklist:
1. An Empty Throne
2. Away
3. The Longing
4. Celeste
5. Unearthly Burial
6. Fever Dream
******************************
Total playing time: 47:15



(IMG:https://metalarea.org/images/youtube.png)

Technical info
(IMG:https://metalarea.org/images/spectrogram/2019_Feb/382c998cbfbcb00c67b797ad6718e675.png)
Input File: 2 - Away.mp3
Channels : 2
Sample Rate : 44100
Precision : 16-bit
Duration : 00:07:38.08 = 20201416 samples = 34356.1 CDDA sectors
File Size : 18.4M
Bit Rate : 322k
Sample Encoding: MPEG audio (layer I, II or III)
Comments :
Title=Away
Artist=Lysithea
Album=Star-Crossed
Tracknumber=2
Year=2019
Genre=Metal
Discnumber=1



Register


Go to the top of the page
  Insert nick Quick quote
+Quote Post
 
Start new topic
Replies (1 - 4)
post Feb 21 2019, 13:29:45
Post #2

Аннигилятор пивА
Group Icon
Group: V.I.P
Posts: 52,360
Releases: 16555
From: Koenigsberg - TILZIT
On Forums: 13 years 6 months
Thanks: 363283 time(s)
Russian Federation




107/320
Register



Go to the top of the page
  Insert nick Quick quote
+Quote Post
post Feb 22 2019, 17:51:09
Post #3

Правь статус, ####!111
**************
Group: Металариец
Posts: 2,759
Releases: 8
From: Dnipro
On Forums: 11 years 4 months
Thanks: 863 time(s)
Ukraine


Достаточно известная группа, альбомы 2014 и 2015 годов были очень не плохи (IMG:style_emoticons/default/dooo.gif)
Все таки стиль бы еще добавил два слова: Death Metal.
Прогрессива не услышал, скорей Atmospheric Melodic Death/Doom Metal
Go to the top of the page
  Insert nick Quick quote
+Quote Post
post Feb 28 2019, 13:29:44
Post #4

Девять Литров
*********
Group: Металариец
Posts: 982
Releases: 1
From: Харьков
On Forums: 11 years 3 months
Thanks: 299 time(s)
Ukraine


Именно, дэт тут на первом месте (IMG:style_emoticons/default/dooo.gif)
Go to the top of the page
  Insert nick Quick quote
+Quote Post
post Mar 17 2019, 04:56:48
Post #5

Ъ
**************
Group: Металариец
Posts: 9,808
Releases: 9
On Forums: 10 years 11 months
Thanks: 1924 time(s)
Sweden


На раз послушать можно.
Go to the top of the page
  Insert nick Quick quote
+Quote Post

Reply to this topicStart new topic
2 User(s) are reading this topic (2 Guests and 0 Anonymous Users)
0 Members:

 



- Lo-Fi Version Support form
Copyrights and abuse reports form
Time is now: 11th December 2019 - 20:06:57