Welcome Guest ( Log In | Register )

> Wachenfeldt - The Interpreter (2019), Progressive Death Metal
post Feb 21 2019, 14:31:52
Post #1

Аннигилятор пивА
Group Icon
Group: V.I.P
Posts: 52,360
Releases: 16555
From: Koenigsberg - TILZIT
On Forums: 13 years 6 months
Thanks: 363285 time(s)
Russian Federation


(IMG:https://metalarea.org/images/audiocovers/2019_Feb/acov_tid317982_thumb.jpg)

*Artist: Wachenfeldt
*Album: The Interpreter
*Year: 2019
*Genre: Progressive Death Metal
*Country: Sweden (IMG:https://metalarea.org/forum/style_images/flags/Sweden.png)
*Format: mp3@CBR320kbps
*Size: 146MB

Tracklist:
01. Spirits of the Dead 05:47
02. Arhan 06:47
03. The Interpreter 06:21
04. Ut 07:31
05. Intermezzo – Aiwass 02:27
06. Colophon 05:42
07. Athor and Asar 05:11
08. Litany to Satan 07:36
09. The Ladder 06:20
10. Hymn to Lucifer 05:56
11. Necrophiliac 03:40
******************************
Total playing time: 1:03:18




Extended info
Понятно, что в основе олдскульные корни)))

"Way back in 2013, a new Swedish project called WACHENFELDT released their debut EP “Colophon”. After much anticipation, this year sees them back with their debut full-length album “The Interpreter”, clocking in at just under an hour. Styled as a Blackened Death/Thrash band, WACHENFELDT comprises three very talented musicians, known from their involvement from other bands such as ENTOMBED, OST+FRONT, and MÅNEGARM, to name a few. And from this melting pot emerges a malevolent ferocious monster of an album."

The Interpreter where also recorded at Bowstead Studios and Fear & Loathing Studios and was mixed by Tommy Rehn (Angtoria, Corroded, The Kristet Utseende i.a.). The album is released on Threeman Recordings and contain 11 songs where three of them ("Colophon", "Hymn to Lucifer" and "Litany to Satan") were also featured on the Colophon, but now in new versions.


http://wachenfeldtband.com/index.html
https://shop.season-of-mist.com/wachenfeldt...-interpreter-cd
https://www.amazon.com/Interpreter-Wachenfe...tag=smarturl-20

Thomas von Wachenfeldt - Guitars, Vocals, Bass, Violin, Keyboards (2011-present) See also: De Tveksamma, Wombbath, ex-Gadget
Jon Skäre - Drums (2012-present) See also: Defiatory, Mindsplit, ex-Oof Expain
Martin Björklund - Guitars (2012-present) See also: ex-Månegarm



Technical info
(IMG:https://metalarea.org/images/spectrogram/2019_Feb/8269dc3b6245fed742071af28066f3eb.png)
Input File: 1 - Spirits of the Dead.mp3
Channels : 2
Sample Rate : 44100
Precision : 16-bit
Duration : 00:05:46.59 = 15284399 samples = 25993.9 CDDA sectors
File Size : 14.0M
Bit Rate : 323k
Sample Encoding: MPEG audio (layer I, II or III)
Comments :
Title=Spirits of the Dead
Artist=Wachenfeldt
Album=The Interpreter
Tracknumber=1
Year=2019
Genre=Metal
Discnumber=1



Register


Go to the top of the page
  Insert nick Quick quote
+Quote Post
 
Start new topic
Replies (1 - 8)
post Feb 21 2019, 17:55:02
Post #2

Аннигилятор пивА
Group Icon
Group: V.I.P
Posts: 52,360
Releases: 16555
From: Koenigsberg - TILZIT
On Forums: 13 years 6 months
Thanks: 363285 time(s)
Russian Federation


MIRROR
Register



Thanks:
Go to the top of the page
  Insert nick Quick quote
+Quote Post
post Feb 21 2019, 17:55:39
Post #3

Crush! Kill! Destroy!
**************
Group: Металариец
Posts: 5,169
Releases: 15
From: Kaliningrad
On Forums: 12 years 3 weeks
Thanks: 4736 time(s)
Russian Federation


Олдскулом-то не пахнет, но альбом потенциально силен, надо еще разок-другой послушать.
Go to the top of the page
  Insert nick Quick quote
+Quote Post
post Feb 21 2019, 17:57:31
Post #4

Аннигилятор пивА
Group Icon
Group: V.I.P
Posts: 52,360
Releases: 16555
From: Koenigsberg - TILZIT
On Forums: 13 years 6 months
Thanks: 363285 time(s)
Russian Federation


ЦИТАТА(Dmitry1977 @ Feb 21 2019, 16:55:39) *
Олдскулом-то не пахнет, но альбом потенциально силен, надо еще разок-другой послушать.

олдскул в той степени в которой флеботомозед примерно
Go to the top of the page
  Insert nick Quick quote
+Quote Post
post Feb 21 2019, 18:16:11
Post #5

Правь статус, ####!111
**************
Group: Металариец
Posts: 19,828
Releases: 13456
From: Г.Харьков
On Forums: 7 years 7 months
Thanks: 232684 time(s)
Unknown


ну ты любишь старье переливать и за новые выдавать,-это уже давно всем известно! (IMG:style_emoticons/default/1488.gif)
Go to the top of the page
  Insert nick Quick quote
+Quote Post
post Feb 21 2019, 18:23:23
Post #6

Аннигилятор пивА
Group Icon
Group: V.I.P
Posts: 52,360
Releases: 16555
From: Koenigsberg - TILZIT
On Forums: 13 years 6 months
Thanks: 363285 time(s)
Russian Federation


ЦИТАТА(Samaritianin @ Feb 21 2019, 17:16:11) *
ну ты любишь старье переливать и за новые выдавать,-это уже давно всем известно! (IMG:style_emoticons/default/1488.gif)

для тебя инфа выше, я в той теме у тебя спросил пруфы на выход альбома, у меня пруфы от самой группы и лейбла, хватит уже флудить, по делу пиши, если есть чего


Thanks:
(1) pain,
Go to the top of the page
  Insert nick Quick quote
+Quote Post
post Feb 22 2019, 05:16:44
Post #7

Три Литра
***
Group: Завсегдатай
Posts: 250
Releases: 0
From: Россия
On Forums: 7 years 10 months
Thanks: 83 time(s)
Russian Federation


Опять от тебя обман,лживый.Людей не обманешь-не проживешь,с гнильцой видать тебя родили

Release date:August 23rd, 2017

https://www.metal-archives.com/albums/Wache...erpreter/667194
Go to the top of the page
  Insert nick Quick quote
+Quote Post
post Feb 22 2019, 06:34:14
Post #8

Crush! Kill! Destroy!
**************
Group: Металариец
Posts: 5,169
Releases: 15
From: Kaliningrad
On Forums: 12 years 3 weeks
Thanks: 4736 time(s)
Russian Federation


Пипец, чего вы докопались? На ЦД он вышел только сейчас (точнее - сегодня официально), рецензии в интернетах тоже сейчас подвалили, какая разница, что они его запилили в 2017? Больше в жизни себе и другим сказать нечего, кроме как нос утереть в форумных баталиях? И при этом по опыту - один хрен все остаются при своём (или на своём (IMG:style_emoticons/default/25.gif) ). Смысл?


Thanks:
Go to the top of the page
  Insert nick Quick quote
+Quote Post
post Feb 22 2019, 09:51:36
Post #9

hearer & reader
**************
Group: Металариец
Posts: 8,234
Releases: 111
From: Moscow
On Forums: 12 years 3 months
Thanks: 7770 time(s)
Russian Federation


Не одобряю размножение тем почкованием. Эстет не прав.
Два бонуса одобряю. Кстати, последний - кавер Слэйера.
"Progressive" в топку, тут просто шведодес.
Go to the top of the page
  Insert nick Quick quote
+Quote Post

Reply to this topicStart new topic
2 User(s) are reading this topic (2 Guests and 0 Anonymous Users)
0 Members:

 



- Lo-Fi Version Support form
Copyrights and abuse reports form
Time is now: 11th December 2019 - 21:25:40