Welcome Guest ( Log In | Register )

 
Reply to this topicStart new topic
> From Crisis To Collapse - The Seventh Tree [ep] (2019), Melodic Death Metal
post Feb 21 2019, 20:22:13
Post #1

Аннигилятор пивА
Group Icon
Group: V.I.P
Posts: 52,360
Releases: 16555
From: Koenigsberg - TILZIT
On Forums: 13 years 6 months
Thanks: 363305 time(s)
Russian Federation


(IMG:https://metalarea.org/images/audiocovers/2019_Feb/acov_tid318001_thumb.jpg)

*Artist: From Crisis To Collapse
*Album: The Seventh Tree [ep]
*Year: 2019
*Genre: Melodic Death Metal
*Country: Australia (IMG:https://metalarea.org/forum/style_images/flags/Australia.png)
*Format: mp3@CBR320kbps
*Size: 66MB

Tracklist:
1. Crisis 04:37
2. Turning the Gun 03:38
3. Dimitri 03:26
4. Slow Burn 05:40
5. No Promises 02:33
6. Lift the Veil 03:45
7. Crystals Are Us 04:48
******************************
Total playing time: 28:27




Extended info
Unai Aldecoa - Bass
Marco Penniello - Drums
Chad Ellis - Guitars (2015-present)
Ian Konrad - Guitars (2015-present) See also: ex-Tria Mera, ex-Chemical Cascades
Angus Carter - Vocals (lead) (2015-present)


Technical info
(IMG:https://metalarea.org/images/spectrogram/2019_Feb/81618752f6ae28b49a3041cf3fdf1476.png)
Input File: 02 Turning The Gun.mp3
Channels : 2
Sample Rate : 44100
Precision : 16-bit
Duration : 00:03:38.00 = 9613800 samples = 16350 CDDA sectors
File Size : 9.04M
Bit Rate : 332k
Sample Encoding: MPEG audio (layer I, II or III)
Comments :
Title=Turning The Gun
Artist=The Seventh Tree
Album=The Seventh Tree
Tracknumber=2



Register


Go to the top of the page
  Insert nick Quick quote
+Quote Post

Reply to this topicStart new topic
2 User(s) are reading this topic (2 Guests and 0 Anonymous Users)
0 Members:

 



- Lo-Fi Version Support form
Copyrights and abuse reports form
Time is now: 13th December 2019 - 13:51:39