Welcome Guest ( Log In | Register )

> Requiem - Dark Unholy Demo [demo] (1991), Thrash Metal (D)
post Feb 26 2019, 10:55:18
Post #1

Подвал
**************
Group: Металариец
Posts: 18,390
Releases: 10501
From: Far East (Khabarovsk)
On Forums: 14 years 3 days
Thanks: 123179 time(s)
Russian Federation


(IMG:http://metalarea.org/images/audiocovers/2019_Feb/acov_tid318177_thumb.jpg)

*Artist: Requiem
*Album: Dark Unholy Demo [demo]
*Year: 1991
*Genre: Thrash Metal
*Country: United States (IMG:http://metalarea.org/forum/style_images/flags/United%20States.png)
*Format: mp3@CBR320kbps
*Size: 23MB

Tracklist:
1. Dark Unholy Dawn 03:35
2. Perquaky 03:29
3. Obituaries 03:34
******************************
Total playing time: 10:38

Extended info
Band from Flint, Michigan (including members of Exploding Zombies).
MA mistakenly marked this demo as instrumental, though this version has vocals in every track.


Technical info
(IMG:http://metalarea.org/images/spectrogram/2019_Feb/9e10f72bbc3f5fb206f9f6454409350b.png)
Input File: 01-Dark Unholy Dawn.mp3
Channels : 2
Sample Rate : 44100
Precision : 16-bit
Duration : 00:03:35.12 = 9486660 samples = 16133.8 CDDA sectors
File Size : 8.61M
Bit Rate : 320k
Sample Encoding: MPEG audio (layer I, II or III)
Comments :
Title=Dark Unholy Dawn
Artist=Requiem (USA,MI)
Album=Dark Unholy Demo
Tracknumber=01
Year=1991
Genre=Thrash Metal



Register


Go to the top of the page
  Insert nick Quick quote
+Quote Post
 
Start new topic
Replies (1 - 2)
post Jan 25 2023, 11:19:41
Post #2

Подвал
**************
Group: Металариец
Posts: 18,390
Releases: 10501
From: Far East (Khabarovsk)
On Forums: 14 years 3 days
Thanks: 123179 time(s)
Russian Federation


new link:
Register


Go to the top of the page
  Insert nick Quick quote
+Quote Post
post Jan 26 2023, 17:45:28
Post #3

Два Литра
**
Group: Завсегдатай
Posts: 131
Releases: 0
On Forums: 4 years 9 months
Thanks: 139 time(s)
Unknown


(IMG:https://i.ibb.co/85T1Wkp/full.jpg)


Thanks:
Go to the top of the page
  Insert nick Quick quote
+Quote Post

Reply to this topicStart new topic
1 User(s) are reading this topic (1 Guests and 0 Anonymous Users)
0 Members:

 



- Lo-Fi Version Support form
Copyrights and abuse reports form
Time is now: 28th January 2023 - 20:01:49