Welcome Guest ( Log In | Register )

> Ozzy Osbourne - Ozzmosis Demos 1992 [demo] (2014), Heavy Metal (D)
post Feb 26 2019, 18:03:47
Post #1

Правь статус, ####!111
**************
Group: Металариец
Posts: 44,608
Releases: 688
On Forums: 10 years 6 months
Thanks: 35876 time(s)
Russian Federation


(IMG:http://metalarea.org/images/audiocovers/2019_Feb/acov_tid318202_thumb.jpg)

*Artist: Ozzy Osbourne
*Album: Ozzmosis Demos 1992 [demo]
*Year: 2014
*Genre: Heavy Metal
*Country: United Kingdom (IMG:http://metalarea.org/forum/style_images/flags/United%20Kingdom.png)
*Format: mp3@CBR320kbps
*Size: 138MB

Tracklist:
1. Feels So Good To Be Bad
2. Denial
3. Too Far Gone
4. Ghost Behind My Eyes
5. Frustrated Yes I'm Hated
6. Dream For Tomorrow
7. Say Yeah Yeah
8. Oh No The Bitch Won't Go
9. My New Rock And Roll
10. Perry Mason
11. Old L.A. Tonight
12. See You On The Other Side
******************************
Total playing time: 58:30

Technical info
(IMG:http://metalarea.org/images/spectrogram/2019_Feb/3bcbf18d5487c57222484c3598e2e965.png)
Input File: 01. Feels So Good To Be Bad.mp3
Channels : 2
Sample Rate : 44100
Precision : 16-bit
Duration : 00:04:27.12 = 11779992 samples = 20034 CDDA sectors
File Size : 10.7M
Bit Rate : 321k
Sample Encoding: MPEG audio (layer I, II or III)
Comments :
Title=Feels So Good To Be Bad
Artist=Ozzy Osbourne
Album=Ozzmosis Demos 1992
Tracknumber=01
Year=2014
Genre=Heavy Metal | Hard Rock | Hard'n'Heavy | Glam Metal | Doom Metal | Dark Heavy Metal | Classic Rock | Classic Heavy Metal



Register


Go to the top of the page
  Insert nick Quick quote
+Quote Post
 
Start new topic
Replies (1 - 6)
post Feb 27 2019, 08:44:21
Post #2

Четыре Литра
****
Group: Металариец
Posts: 371
Releases: 0
On Forums: 7 years 2 weeks
Thanks: 472 time(s)
Ukraine


Очень странные впечатления.
Go to the top of the page
  Insert nick Quick quote
+Quote Post
post Feb 27 2019, 10:35:01
Post #3

Правь статус, ####!111
**************
Group: Металариец
Posts: 44,608
Releases: 688
On Forums: 10 years 6 months
Thanks: 35876 time(s)
Russian Federation


В отличии от демки к Ноу Мо Тиарс, здесь все звучит действительно необычно по сравнению с теми версиями песен, что вошли на альбом. Но тем подобное и ценно!

@320

Register


Thanks:
(1) Rover,
Go to the top of the page
  Insert nick Quick quote
+Quote Post
post Feb 27 2019, 14:30:54
Post #4

на аватаре не я
**************
Group: Металариец
Posts: 4,830
Releases: 7
From: "Самопровозглашенная ДНР" (с)
On Forums: 10 years 5 months
Thanks: 2320 time(s)
Russian Federation


Открывашка хороша. Лучше бы ее включили вместо ай джест вонт ю. Ghost Behind My Eyes понравился даже больше, чем на альбоме. Но больше как-то ничего не зашло.
Go to the top of the page
  Insert nick Quick quote
+Quote Post
post Feb 27 2019, 19:41:59
Post #5

Русь Понад Усе!
**************
Group: Металариец
Posts: 4,245
Releases: 15
From: Украина
On Forums: 12 years 3 months
Thanks: 1664 time(s)
Ukraine


Совсем как то всё странно звучит .. Не привычно но послушать интересно что было головах музыкантов до выхода альбома (IMG:style_emoticons/default/crazy.gif)


Thanks:
Go to the top of the page
  Insert nick Quick quote
+Quote Post
post Feb 27 2019, 20:04:50
Post #6

Два Литра
**
Group: Завсегдатай
Posts: 189
Releases: 0
From: Kiev
On Forums: 10 years 11 months
Thanks: 39 time(s)
Ukraine


Не понравилась только See You On The Other Side из-за надоедливого саксофона, все остальное , особенно так и невышедшие трэки, просто класс. Многие из них куда круче номерных вещей с последующих альбомов


Thanks:
Go to the top of the page
  Insert nick Quick quote
+Quote Post
post Feb 28 2019, 07:29:39
Post #7

Четыре Литра
****
Group: Металариец
Posts: 301
Releases: 0
From: Ташкент
On Forums: 11 years 10 months
Thanks: 77 time(s)
Uzbekistan


Этим звуком Оззи и записал альбом каверов в 2005 году. Лёгкий такой саузерновый Оззи )))
Go to the top of the page
  Insert nick Quick quote
+Quote Post

Reply to this topicStart new topic
2 User(s) are reading this topic (2 Guests and 0 Anonymous Users)
0 Members:

 



- Lo-Fi Version Support form
Copyrights and abuse reports form
Time is now: 13th December 2019 - 13:52:03