Welcome Guest ( Log In | Register )

Объявления

* gmail.com упорно продолжает считать почту с нас "unsolicited" и отбивает в том числе и письма активации, поэтому просьба использовать альтернативные почтовые ящики.
------------
* gmail.com continues reject all mail from us as "unsolicited" (activation mails too) therefore please use alternate mail servers.
> William Paul - March With The Drones (2019), Progressive Metal
post Mar 1 2019, 14:23:32
Post #1

Serial Uploader
Group Icon
Group: V.I.P
Posts: 42,595
Releases: 40661
From: Lithuania
On Forums: 15 years 11 months
Thanks: 521144 time(s)
Lithuania


(IMG:https://metalarea.org/images/audiocovers/2019_Mar/acov_tid318370_thumb.jpg)

*Artist: William Paul
*Album: March With The Drones
*Year: 2019
*Genre: Progressive Metal
*Country: France (IMG:https://metalarea.org/forum/style_images/flags/France.png)
*Format: mp3@CBR320kbps
*Size: 75MB

Tracklist:
01. The Culprit
02. The Victim
03. Substance
04. Perfection
05. Riot
06. Understood
07. Survive
08. March With The Drones
******************************
Total playing time: 32:39



Technical info
(IMG:https://metalarea.org/images/spectrogram/2019_Mar/9d11d737e7015499b91fcab1fecc710d.png)
Input File: 02 - The Victim.mp3
Channels : 2
Sample Rate : 44100
Precision : 16-bit
Duration : 00:04:39.97 = 12346765 samples = 20997.9 CDDA sectors
File Size : 11.4M
Bit Rate : 325k
Sample Encoding: MPEG audio (layer I, II or III)
Comments :
Title=The Victim
Artist=William Paul
Album=March with the Drones
Tracknumber=2
Year=2019
Genre=Metal
Discnumber=1



Register


Go to the top of the page
  Insert nick Quick quote
+Quote Post
 
Start new topic
Replies (1 - 1)
post Jul 30 2023, 17:27:21    Сейчас играет: Re-up please ;-)
Post #2

Правь статус, ####!111
**************
Group: Металариец
Posts: 3,764
Releases: 0
From: Sofia
On Forums: 16 years 7 months
Thanks: 134 time(s)
Bulgaria


Re-up please (IMG:style_emoticons/default/pray.gif) (IMG:style_emoticons/default/pray.gif) (IMG:style_emoticons/default/pray.gif)
Go to the top of the page
  Insert nick Quick quote
+Quote Post

Reply to this topicStart new topic
1 User(s) are reading this topic (1 Guests and 0 Anonymous Users)
0 Members:

 



- Lo-Fi Version Support form
Copyrights and abuse reports form
Time is now: 24th May 2024 - 21:35:23