Welcome Guest ( Log In | Register )

> 

Здесь релизы с живыми прямыми ссылками на lossless

> Asphodelus - Stygian Dreams (2019), Doom/Death Metal
post Mar 2 2019, 14:47:48
Post #1

Правь статус, ####!111
**************
Group: Металариец
Posts: 2,307
Releases: 1860
From: Praha
On Forums: 7 years 3 months
Thanks: 49345 time(s)
Czech Republic


(IMG:http://metalarea.org/images/audiocovers/2019_Mar/acov_tid318450_thumb.jpg)

*Artist: Asphodelus
*Album: Stygian Dreams
*Year: 2019
*Genre: Doom/Death Metal
*Country: Finland (IMG:http://metalarea.org/forum/style_images/flags/Finland.png)
*Format: mp3@CBR320kbps
*Size: 100MB

Tracklist:
1. Les Océanides (Intro) 02:37
2. Lamentation of the Lost Soul 04:43
3. Scent of Venus 04:33
4. The Hourglass Infernal 05:33
5. Delusions ad Astra 05:03
6. Stygian Dreaming 06:29
7. Sleep of Eternity 04:51
8. Where Freezing Spirits Fall 08:37
******************************
Total playing time: 42:26

Extended info
Terror from Hell Records


Technical info
(IMG:http://metalarea.org/images/spectrogram/2019_Mar/c4dc68ac1b0713d40da73e15b9e11160.png)
Input File: 02. Lamentation of the Lost Soul.mp3
Channels : 2
Sample Rate : 48000
Precision : 16-bit
Duration : 00:04:43.15 = 13591440 samples ~ 21236.6 CDDA sectors
File Size : 11.4M
Bit Rate : 323k
Sample Encoding: MPEG audio (layer I, II or III)
Comments :
Title=Lamentation of the Lost Soul
Artist=Asphodelus
Album=Stygian Dreams
Tracknumber=02/08
Year=2019
Genre=Doom / Death Metal



Register


Go to the top of the page
  Insert nick Quick quote
+Quote Post
 
Start new topic
Replies (1 - 5)
post Mar 2 2019, 15:16:03
Post #2

Morbid Angel
**************
Group: Металариец
Posts: 4,175
Releases: 0
From: Литва г.Клайпеда
On Forums: 14 years 4 months
Thanks: 1813 time(s)
Lithuania




Thanks:
(1) SAPOGi,
Go to the top of the page
  Insert nick Quick quote
+Quote Post
post Mar 2 2019, 18:20:56
Post #3

Common dweller of hell
**************
Group: Металариец
Posts: 3,905
Releases: 12
From: Dnipro
On Forums: 13 years 3 weeks
Thanks: 1531 time(s)
Ukraine


Очень скучно и невнятно как для финнов.


Thanks:
Go to the top of the page
  Insert nick Quick quote
+Quote Post
post Mar 3 2019, 17:32:40
Post #4

MDM-Thrash Metal
**************
Group: Металариец
Posts: 10,496
Releases: 1268
From: Одесса
On Forums: 13 years 11 months
Thanks: 30854 time(s)
Ukraine


Register


Thanks:
Go to the top of the page
  Insert nick Quick quote
+Quote Post
post Mar 6 2019, 18:37:11
Post #5

Самый Тихий Час
**************
Group: Металариец
Posts: 6,493
Releases: 6
On Forums: 11 years 8 months
Thanks: 3046 time(s)
Unknown


Old Katatonia Worship. Очень ждал. Альбом топовый.

Эх, еще бы Plague Upon The Living выложили...
Go to the top of the page
  Insert nick Quick quote
+Quote Post
post Jan 7 2020, 11:46:36
Post #6

Group Icon
Group: S-moderation team
Posts: 21,539
Releases: 1443
From: Zagreb
On Forums: 10 years 5 months
Thanks: 100169 time(s)
Croatia


Register


Thanks:
Go to the top of the page
  Insert nick Quick quote
+Quote Post

Reply to this topicStart new topic
2 User(s) are reading this topic (2 Guests and 0 Anonymous Users)
0 Members:

 



- Lo-Fi Version Support form
Copyrights and abuse reports form
Time is now: 4th August 2021 - 14:49:33