Welcome Guest ( Log In | Register )

> Sutura - Clasta (2019), Black/Death Metal
post Mar 2 2019, 21:50:54
Post #1

Правь статус, ####!111
**************
Group: Металариец
Posts: 27,706
Releases: 20146
From: Г.Харьков
On Forums: 9 years 5 months
Thanks: 407758 time(s)
Unknown


(IMG:https://metalarea.org/images/audiocovers/2019_Mar/acov_tid318476_thumb.jpg)

*Artist: Sutura
*Album: Clasta
*Year: 2019
*Genre: Black/Death Metal
*Country: Brazil (IMG:https://metalarea.org/forum/style_images/flags/Brazil.png)
*Format: mp3@CBR320kbps
*Size: 94MB

Tracklist:
1. Solstice 05:01
2. The Grave Awaits Your Flesh 05:15
3. Covenant Of The Wicked 04:45
4. Into The Evil Tomb 03:12
5. Clasta 04:45
6. Path From Insanity 05:09
7. Edges Of Deception 03:55
8. Only Darkness Will Remains 00:46 instrumental
9. Mountains Of Grievance 05:46
10. Gravelord 04:42
******************************
Total playing time: 43:16




Extended info
Luciano Galvão - Guitar/Vocals
Nathan Azevedo - Guitar
William "Delta X" Toledo - Drums
Erik - Bass


Technical info
(IMG:https://metalarea.org/images/spectrogram/2019_Mar/13922ff8aee88da66975a4a46135bbe3.png)
Input File: 03. Covenant of the Wicked.mp3
Channels : 2
Sample Rate : 44100
Precision : 16-bit
Duration : 00:04:47.26 = 12668210 samples = 21544.6 CDDA sectors
File Size : 11.5M
Bit Rate : 320k
Sample Encoding: MPEG audio (layer I, II or III)
Comments :
Title=Covenant Of The Wicked
Artist=Sutura
Album=Clasta
Tracknumber=3
Year=2019



Register


Go to the top of the page
  Insert nick Quick quote
+Quote Post
 
Start new topic
Replies (1 - 3)
post Mar 3 2019, 15:04:07
Post #2

Шесть Литров
******
Group: Металариец
Posts: 501
Releases: 0
From: Град Московский
On Forums: 13 years 9 months
Thanks: 136 time(s)
Russian Federation


Отлично! Давно такого Black-Death[a] не слышал..разнообразно,мелодично,зло,в одном флаконе...ОЛДА!


Thanks:
Go to the top of the page
  Insert nick Quick quote
+Quote Post
post Mar 3 2019, 21:26:35
Post #3

De Mysteriis Dom Sathanas
**************
Group: Металариец
Posts: 4,297
Releases: 63
From: Doom
On Forums: 13 years 3 months
Thanks: 3671 time(s)
Russian Federation


мелодик
Go to the top of the page
  Insert nick Quick quote
+Quote Post
post Mar 3 2019, 22:09:19
Post #4

Социопат.Маргинал. Мизантроп.Нигилист. Перверзный нарциссист.
**************
Group: Металариец
Posts: 5,571
Releases: 666
From: Город-герой Ленинград
On Forums: 10 years 8 months
Thanks: 6498 time(s)
Russian Federation


Ошибка в одну букву в названии ВИА,а пережил столько эмоций...
Go to the top of the page
  Insert nick Quick quote
+Quote Post

Reply to this topicStart new topic
2 User(s) are reading this topic (2 Guests and 0 Anonymous Users)
0 Members:

 



- Lo-Fi Version Support form
Copyrights and abuse reports form
Time is now: 21st October 2021 - 22:21:26