Welcome Guest ( Log In | Register )

> Bergrizen - Einsamkeit Im Wintersturm [live] (2018), Atmospheric Black Metal (D)
post Mar 13 2019, 10:13:46
Post #1

Время Мары
**************
Group: Металариец
Posts: 3,242
Releases: 473
From: Харьков
On Forums: 12 years 1 month
Thanks: 9721 time(s)
Ukraine


(IMG:http://metalarea.org/images/audiocovers/2019_Mar/acov_tid318958_thumb.jpg)

*Artist: Bergrizen
*Album: Einsamkeit Im Wintersturm [live]
*Year: 2018
*Genre: Atmospheric Black Metal
*Country: Ukraine (IMG:http://metalarea.org/forum/style_images/flags/Ukraine.png)
*Format: mp3@CBR320kbps
*Size: 110MB

Tracklist:
1. Der Unsterbliche Geist
2. Lied Der Rache
3. Ankunft Der Winterdämmerung II
4. Das Alte Herzeleid
5. Entsagen
6. Der Wanderer II (Die Nacht Des Raben)
7. Der Wanderer
8. Einsamkeit Im Wintersturm
******************************
Total playing time: 48:26

Technical info
(IMG:http://metalarea.org/images/spectrogram/2019_Mar/7c458c90835c77889ee6ba77a6511759.png)
Input File: 02. Lied Der Rache.mp3
Channels : 2
Sample Rate : 44100
Precision : 16-bit
Duration : 00:06:15.05 = 16539661 samples = 28128.7 CDDA sectors
File Size : 15.0M
Bit Rate : 320k
Sample Encoding: MPEG audio (layer I, II or III)
Comments :
Title=Lied Der Rache
Artist=Bergrizen
Album=Einsamkeit Іm Wintersturm
Tracknumber=2
Year=2018



Register


Go to the top of the page
  Insert nick Quick quote
+Quote Post
 
Start new topic
Replies (1 - 1)
post Mar 13 2019, 13:53:02
Post #2

Маньяк
**********
Group: Металариец
Posts: 1,119
Releases: 0
On Forums: 10 years 2 months
Thanks: 539 time(s)
Unknown




Thanks:
(1) RENыч,
Go to the top of the page
  Insert nick Quick quote
+Quote Post

Reply to this topicStart new topic
2 User(s) are reading this topic (2 Guests and 0 Anonymous Users)
0 Members:

 



- Lo-Fi Version Support form
Copyrights and abuse reports form
Time is now: 4th August 2021 - 12:46:18