Welcome Guest ( Log In | Register )

> Mooncorpse - King Of The Damned (2019), Black Metal
post Mar 19 2019, 04:07:55
Post #1

Serial Uploader
Group Icon
Group: V.I.P
Posts: 37,124
Releases: 35308
From: Lithuania
On Forums: 11 years 11 months
Thanks: 419359 time(s)
Lithuania


(IMG:http://metalarea.org/images/audiocovers/2019_Mar/acov_tid319186_thumb.jpg)

*Artist: Mooncorpse
*Album: King Of The Damned
*Year: 2019
*Genre: Black Metal
*Country: Brazil (IMG:http://metalarea.org/forum/style_images/flags/Brazil.png)
*Format: mp3@CBR320kbps
*Size: 99MB

Tracklist:
01. Death March (Awakening)
02. Legion of Night
03. King of the Damned
04. The Graveyard
05. Wretched Queen
06. Dragon of Chaos
07. Ouija
08. Screams
09. Death March (Ritual)
******************************
Total playing time: 38:33



Technical info
(IMG:http://metalarea.org/images/spectrogram/2019_Mar/82d81bf1a348d9fd246491f8df2496bb.png)
Input File: 02. Legion of Night.mp3
Channels : 2
Sample Rate : 44100
Precision : 16-bit
Duration : 00:04:46.11 = 12617539 samples = 21458.4 CDDA sectors
File Size : 12.5M
Bit Rate : 350k
Sample Encoding: MPEG audio (layer I, II or III)
Comments :
Title=Legion of Night
Artist=Mooncorpse
Album=King of the Damned
Tracknumber=2/9
Year=2019



Register


Go to the top of the page
  Insert nick Quick quote
+Quote Post
 
Start new topic
Replies (1 - 3)
post Mar 19 2019, 17:01:03
Post #2

Три Литра
***
Group: Завсегдатай
Posts: 273
Releases: 0
From: Россия
On Forums: 8 years 3 months
Thanks: 90 time(s)
Russian Federation


Бесплатный бендкамп



Thanks:
Go to the top of the page
  Insert nick Quick quote
+Quote Post
post Jul 2 2019, 22:43:24
Post #3

Два Литра
**
Group: Завсегдатай
Posts: 143
Releases: 0
On Forums: 1 year 3 weeks
Thanks: 9 time(s)
Russian Federation


Please, re-upp)
Go to the top of the page
  Insert nick Quick quote
+Quote Post
post Jul 3 2019, 14:24:25
Post #4

Group Icon
Group: S-moderation team
Posts: 15,559
Releases: 1440
From: Zagreb
On Forums: 9 years 3 months
Thanks: 69174 time(s)
Croatia


Register


Go to the top of the page
  Insert nick Quick quote
+Quote Post

Reply to this topicStart new topic
2 User(s) are reading this topic (2 Guests and 0 Anonymous Users)
0 Members:

 



- Lo-Fi Version Support form
Copyrights and abuse reports form
Time is now: 30th May 2020 - 22:45:33