Welcome Guest ( Log In | Register )

> Kalmen - Funeral Seas (2018), Black/Doom Metal
post Mar 19 2019, 20:24:08
Post #1

Пять Литров
*****
Group: Металариец
Posts: 431
Releases: 73
From: italy
On Forums: 12 years 11 months
Thanks: 1640 time(s)
Italy


(IMG:http://metalarea.org/images/audiocovers/2019_Mar/acov_tid319224_thumb.jpg)

*Artist: Kalmen
*Album: Funeral Seas
*Year: 2018
*Genre: Black/Doom Metal
*Country: Germany (IMG:http://metalarea.org/forum/style_images/flags/Germany.png)
*Format: mp3@CBR320kbps
*Size: 117MB

Tracklist:
1. Spectral 10:06
2. Thieving Sky 06:38
3. Portal 05:53
4. Uninfinite Black 03:45
5. Swansong 07:07
6. Arcane Heresies 09:12
7. Searenade 08:22
******************************
Total playing time: 51:03



Technical info
(IMG:http://metalarea.org/images/spectrogram/2019_Mar/bea03f6365f482542018f739a0fb04b2.png)
Input File: Kalmen - Funeral Seas - 01 Spectral.mp3
Channels : 2
Sample Rate : 44100
Precision : 16-bit
Duration : 00:10:06.13 = 26730157 samples = 45459.5 CDDA sectors
File Size : 24.4M
Bit Rate : 322k
Sample Encoding: MPEG audio (layer I, II or III)
Comments :
Title=Spectral
Artist=Kalmen
Album=Funeral Seas
Tracknumber=1
Year=2018
Genre=Black/Doom Metal



Register


Go to the top of the page
  Insert nick Quick quote
+Quote Post
 
Start new topic
Replies (1 - 4)
post Mar 20 2019, 18:07:11
Post #2

дьявол воплоти
**********
Group: Металариец
Posts: 1,070
Releases: 7
On Forums: 10 years 9 months
Thanks: 1401 time(s)
Ukraine


моща!
Go to the top of the page
  Insert nick Quick quote
+Quote Post
post Mar 23 2019, 21:37:06    Сейчас играет: Malevolent Creation - With Murderous Precision
Post #3

antithesis
**************
Group: Металариец
Posts: 3,362
Releases: 35
From: VRN
On Forums: 11 years 4 weeks
Thanks: 2160 time(s)
Russian Federation


mirror, pls
Go to the top of the page
  Insert nick Quick quote
+Quote Post
post Mar 31 2019, 02:56:18
Post #4

Два Литра
**
Group: Завсегдатай
Posts: 194
Releases: 5
On Forums: 9 years 3 months
Thanks: 321 time(s)
Ukraine


Perfect blend of Doom and Black.

Register


Go to the top of the page
  Insert nick Quick quote
+Quote Post
post Oct 22 2019, 16:33:28
Post #5

Group: Подсевший
Posts: 32
Releases: 0
From: St/P
On Forums: 12 years 5 months
Thanks: 8 time(s)
Russian Federation


respect
Go to the top of the page
  Insert nick Quick quote
+Quote Post

Reply to this topicStart new topic
2 User(s) are reading this topic (2 Guests and 0 Anonymous Users)
0 Members:

 



- Lo-Fi Version Support form
Copyrights and abuse reports form
Time is now: 20th June 2021 - 23:15:42