Welcome Guest ( Log In | Register )

 
Reply to this topicStart new topic
> Frosthelm - Pyrrhic (2019), Black/Thrash Metal
post Mar 22 2019, 14:18:56
Post #1

Serial Uploader
Group Icon
Group: V.I.P
Posts: 37,603
Releases: 35775
From: Lithuania
On Forums: 13 years 2 weeks
Thanks: 432914 time(s)
Lithuania


(IMG:https://metalarea.org/images/audiocovers/2019_Mar/acov_tid319388_thumb.jpg)

*Artist: Frosthelm
*Album: Pyrrhic
*Year: 2019
*Genre: Black/Thrash Metal
*Country: United States (IMG:https://metalarea.org/forum/style_images/flags/United%20States.png)
*Format: mp3@CBR320kbps
*Size: 90MB

Tracklist:
01. A Gift of Razors
02. Serpentine Embrace
03. The Sorceress
04. Pisslord
05. Immortal Nightfall / A Dreamless Lust
06. Pyrrhic I: Hollow
07. Pyrrhic II: Looming Dusk
******************************
Total playing time: 39:11




(IMG:https://metalarea.org/images/youtube.png)

Technical info
(IMG:https://metalarea.org/images/spectrogram/2019_Mar/c72d40b28a4fe4636c9ec5d94ad2063b.png)
Input File: 2 - Serpentine Embrace.mp3
Channels : 2
Sample Rate : 44100
Precision : 16-bit
Duration : 00:05:27.15 = 14427271 samples = 24536.2 CDDA sectors
File Size : 13.1M
Bit Rate : 321k
Sample Encoding: MPEG audio (layer I, II or III)
Comments :
Title=Serpentine Embrace
Artist=Frosthelm
Album=Pyrrhic
Tracknumber=2
Year=2019
Genre=Alternative/Indie Rock/Metal
Discnumber=1



Register


Go to the top of the page
  Insert nick Quick quote
+Quote Post
post Mar 22 2019, 21:46:51
Post #2

MDM-Thrash Metal
**************
Group: Металариец
Posts: 10,410
Releases: 1233
From: Одесса
On Forums: 13 years 10 months
Thanks: 30235 time(s)
Ukraine


Register


Go to the top of the page
  Insert nick Quick quote
+Quote Post
post Mar 23 2019, 07:41:35
Post #3

Литр
*
Group: Подсевший
Posts: 81
Releases: 5
On Forums: 2 years 4 months
Thanks: 212 time(s)
Ukraine


Давно ждал и не зря - этот альбом как минимум не хуже их прошлого опуса.
Go to the top of the page
  Insert nick Quick quote
+Quote Post
post Apr 9 2021, 05:32:21
Post #4

Два Литра
**
Group: Завсегдатай
Posts: 167
Releases: 0
From: Russian Federation
On Forums: 14 years 9 months
Thanks: 3 time(s)
Russian Federation


Thank you very much, but unfortunately the link is no longer available (IMG:style_emoticons/default/6.gif)
Can anyone help?
Go to the top of the page
  Insert nick Quick quote
+Quote Post
post Apr 12 2021, 12:16:53
Post #5

Group Icon
Group: S-moderation team
Posts: 21,200
Releases: 1443
From: Zagreb
On Forums: 10 years 3 months
Thanks: 97875 time(s)
Croatia


Register


Thanks:
Go to the top of the page
  Insert nick Quick quote
+Quote Post

Reply to this topicStart new topic
1 User(s) are reading this topic (1 Guests and 0 Anonymous Users)
0 Members:

 



- Lo-Fi Version Support form
Copyrights and abuse reports form
Time is now: 25th June 2021 - 11:51:54