Welcome Guest ( Log In | Register )

> Reflecting The Light - Reflecting The Light (2019), Instrumental Atmospheric/Post-Black Metal
post Mar 23 2019, 16:31:14
Post #1

Правь статус, ####!111
**************
Group: Металариец
Posts: 4,166
Releases: 3819
From: Одесса
On Forums: 13 years 2 months
Thanks: 41807 time(s)
Ukraine


(IMG:http://metalarea.org/images/audiocovers/2019_Mar/acov_tid319437_thumb.jpg)

*Artist: Reflecting The Light
*Album: Reflecting The Light
*Year: 2019
*Genre: Instrumental Atmospheric/Post-Black Metal
*Country: France (IMG:http://metalarea.org/forum/style_images/flags/France.png)
*Format: mp3@CBR320kbps
*Size: 93MB

Tracklist:
1. I 08:01
2. II 06:09
3. III 08:48
4. IV 08:53
5. V 07:06
******************************
Total playing time: 38:57

Extended info
Line - up:

Adz - All instruments (ex-Thy Apokalypse, Eternité du Chaos, Salaman Isku, ex-Abfall)


Technical info
(IMG:http://metalarea.org/images/spectrogram/2019_Mar/623db5a48ea69bac9a11e3c66d6abf01.png)
Input File: 03. III.mp3
Channels : 2
Sample Rate : 48000
Precision : 16-bit
Duration : 00:08:48.34 = 25360272 samples ~ 39625.4 CDDA sectors
File Size : 21.2M
Bit Rate : 321k
Sample Encoding: MPEG audio (layer I, II or III)
Comments :
Title=III
Artist=Reflecting the Light
Album=Reflecting the Light
Tracknumber=3
Year=2019
Genre=Instrumental Atmospheric / Post-Black Metal



Register


Go to the top of the page
  Insert nick Quick quote
+Quote Post
 
Start new topic
Replies (1 - 1)
post Mar 23 2019, 17:18:32
Post #2

Маньяк
**********
Group: Металариец
Posts: 1,119
Releases: 0
On Forums: 10 years 2 months
Thanks: 539 time(s)
Unknown




Thanks:
(1) 555,
Go to the top of the page
  Insert nick Quick quote
+Quote Post

Reply to this topicStart new topic
2 User(s) are reading this topic (2 Guests and 0 Anonymous Users)
0 Members:

 



- Lo-Fi Version Support form
Copyrights and abuse reports form
Time is now: 4th August 2021 - 14:05:38