Welcome Guest ( Log In | Register )

> Damaged - Purified In Pain (2000), Grindcore/Death Metal
post Mar 24 2019, 17:25:29
Post #1

Join my religion, or die
**************
Group: Металариец
Posts: 11,335
Releases: 1956
From: Питера
On Forums: 14 years 6 months
Thanks: 25921 time(s)
Russian Federation


(IMG:https://metalarea.org/images/audiocovers/2019_Mar/acov_tid319487_thumb.jpg)

*Artist: Damaged
*Album: Purified In Pain
*Year: 2000
*Genre: Grindcore/Death Metal
*Country: Australia (IMG:https://metalarea.org/forum/style_images/flags/Australia.png)
*Format: mp3@CBR320kbps
*Size: 89MB

Tracklist:
01. Broken
02. Cyberwar
03. Lifestyles
04. Head Trauma
05. Into Annihilation
06. Conman
07. Breathe Deep
08. Follow The Man
09. After World Obliteration (Terrorizer Cover)
10. Open Season
11. Freeks And Geeks
12. For A Good Time
******************************
Total playing time: 38:40

Technical info
(IMG:https://metalarea.org/images/spectrogram/2019_Mar/1bc50349ab18ecfac4147cafbc850e80.png)
Input File: 03 Lifestyles.mp3
Channels : 2
Sample Rate : 44100
Precision : 16-bit
Duration : 00:03:35.21 = 9490805 samples = 16140.8 CDDA sectors
File Size : 8.73M
Bit Rate : 325k
Sample Encoding: MPEG audio (layer I, II or III)
Comments :
Title=Lifestyles
Artist=Damaged
Album=2000 Purified In Pain
Tracknumber=03/12
Year=2000
Genre=Grindcore/Death Metal



Register


Go to the top of the page
  Insert nick Quick quote
+Quote Post
 
Start new topic
Replies (1 - 1)
post Jan 18 2024, 05:26:56
Post #2

Пять Литров
*****
Group: Металариец
Posts: 432
Releases: 0
On Forums: 6 years 6 months
Thanks: 27 time(s)
United Nations


can someone please reup?
Go to the top of the page
  Insert nick Quick quote
+Quote Post

Reply to this topicStart new topic
1 User(s) are reading this topic (1 Guests and 0 Anonymous Users)
0 Members:

 



- Lo-Fi Version Support form
Copyrights and abuse reports form
Time is now: 22nd April 2024 - 03:41:18