Welcome Guest ( Log In | Register )

> Hicsos - Circle Of Violence (2013), Thrash Metal (D5)
post Mar 28 2019, 00:54:39
Post #1

Правь статус, ####!111
**************
Group: Металариец
Posts: 31,344
Releases: 23111
From: Г.Харьков
On Forums: 10 years 8 months
Thanks: 485950 time(s)
Ukraine


(IMG:https://metalarea.org/images/audiocovers/2019_Mar/acov_tid319635_thumb.jpg)

*Artist: Hicsos
*Album: Circle Of Violence
*Year: 2013
*Genre: Thrash Metal
*Country: Brazil (IMG:https://metalarea.org/forum/style_images/flags/Brazil.png)
*Format: mp3@CBR320kbps
*Size: 94MB

Tracklist:
1. Can't Hang Terror 04:20
2. What You Reap 03:56
3. Now You're Dead 04:19
4. Mirror Eyes 03:47
5. Destruction 01:54
6. Needles 02:54
7. Burn in Hell 03:22
8. Black Rain 03:13
9. Horrospital 03:01
10. Money Becomes God 03:12
11. Prision Without Walls 02:57
12. Angel Ripped 03:27
******************************
Total playing time: 40:22




Extended info
Marco Anvito Bass, Vocals
Marcelo Ledd Drums
Celso Rossatto Guitars (2012-present)
Alexandre Carreiro Guitars (2015-present)
See also: Gutted Souls, Uncrowned, ex-As Dramatic Homage, ex-Desolatae, ex-Dark Tower (live)


Technical info
(IMG:https://metalarea.org/images/spectrogram/2019_Mar/f01409c4468d3ad6b6e2b9b7b59d24b5.png)
Input File: 03 - Now You\'re Dead.mp3
Channels : 2
Sample Rate : 44100
Precision : 16-bit
Duration : 00:04:18.70 = 11408846 samples = 19402.8 CDDA sectors
File Size : 10.5M
Bit Rate : 325k
Sample Encoding: MPEG audio (layer I, II or III)
Comments :
Title=Now You're Dead
Artist=Hicsos
Album=Circle of Violence
Tracknumber=3
Year=2013
Discnumber=1



Register


Go to the top of the page
  Insert nick Quick quote
+Quote Post
 
Start new topic
Replies (1 - 2)
post Mar 28 2019, 17:33:09
Post #2

Common dweller of hell
**************
Group: Металариец
Posts: 4,584
Releases: 12
From: Dnipro
On Forums: 14 years 6 months
Thanks: 1818 time(s)
Ukraine


Good Stuff (IMG:style_emoticons/default/true_black.gif)
Go to the top of the page
  Insert nick Quick quote
+Quote Post
post Feb 11 2022, 04:12:22
Post #3

Going home. Flying high.
**************
Group: Металариец
Posts: 13,612
Releases: 0
From: The Land of Shadows
On Forums: 16 years 5 months
Thanks: 30425 time(s)
Russian Federation


from web
Register


Thanks:
(1) Xtohar,
Go to the top of the page
  Insert nick Quick quote
+Quote Post

Reply to this topicStart new topic
2 User(s) are reading this topic (2 Guests and 0 Anonymous Users)
0 Members:

 



- Lo-Fi Version Support form
Copyrights and abuse reports form
Time is now: 28th January 2023 - 14:27:18