Welcome Guest ( Log In | Register )

> И неформату есть предел.

Рэп/хип-хоп/шансон/поп удаляются. Для них есть свои порталы.

> Falseta - Radiance (2019), Alternative Rock
post Mar 28 2019, 17:15:15
Post #1

Serial Uploader
Group Icon
Group: V.I.P
Posts: 37,136
Releases: 35320
From: Lithuania
On Forums: 11 years 11 months
Thanks: 419681 time(s)
Lithuania


(IMG:https://metalarea.org/images/audiocovers/2019_Mar/acov_tid319714_thumb.jpg)

*Artist: Falseta
*Album: Radiance
*Year: 2019
*Genre: Alternative Rock
*Country: United States (IMG:https://metalarea.org/forum/style_images/flags/United%20States.png)
*Format: mp3@CBR320kbps
*Size: 62MB

Tracklist:
01. Radiance
02. Pajama Party
03. Firefly
04. Overrated Tendency
05. Lectures
06. Remind Me
07. The Grey LaMount
******************************
Total playing time: 26:58


(IMG:https://metalarea.org/images/youtube.png)

Technical info
(IMG:https://metalarea.org/images/spectrogram/2019_Mar/d88a75ada02a5ec52deee65d88194c90.png)
Input File: 2 - Pajama Party.mp3
Channels : 2
Sample Rate : 44100
Precision : 16-bit
Duration : 00:03:45.48 = 9943448 samples = 16910.6 CDDA sectors
File Size : 9.12M
Bit Rate : 323k
Sample Encoding: MPEG audio (layer I, II or III)
Comments :
Title=Pajama Party
Artist=Falseta
Album=Radiance
Tracknumber=2
Year=2019
Genre=Rock
Discnumber=1



Register
Go to the top of the page
  Insert nick Quick quote
+Quote Post
 
Start new topic
Replies (1 - 2)
post Mar 28 2019, 19:20:27
Post #2

Литр
*
Group: Подсевший
Posts: 90
Releases: 11
From: Croatia
On Forums: 14 years 3 months
Thanks: 649 time(s)
Croatia


lol. this isn't even "metal", let alone "progressive". i've had farts more metal than this


Thanks:
Go to the top of the page
  Insert nick Quick quote
+Quote Post
post Mar 28 2019, 19:33:32
Post #3

21st Century Schizoid Man
**************
Group: Металариец
Posts: 6,463
Releases: 79
From: Moscow
On Forums: 12 years 1 month
Thanks: 5310 time(s)
Russian Federation





Да, скорее Alternative Rock.
Go to the top of the page
  Insert nick Quick quote
+Quote Post

Reply to this topicStart new topic
1 User(s) are reading this topic (1 Guests and 0 Anonymous Users)
0 Members:

 



- Lo-Fi Version Support form
Copyrights and abuse reports form
Time is now: 7th June 2020 - 09:50:28