Welcome Guest ( Log In | Register )

> И неформату есть предел.

Рэп/хип-хоп/шансон/поп удаляются. Для них есть свои порталы.

 
Reply to this topicStart new topic
> Sloppy Seconds - Endless Bummer (2008), Punk Rock
post Mar 28 2019, 21:09:05
Post #1

Шесть Литров
******
Group: Металариец
Posts: 629
Releases: 124
On Forums: 1 year 4 months
Thanks: 1485 time(s)
Canada


(IMG:https://metalarea.org/images/audiocovers/2019_Mar/acov_tid319725_thumb.jpg)

*Artist: Sloppy Seconds
*Album: Endless Bummer
*Year: 2008
*Genre: Punk Rock
*Country: United States (IMG:https://metalarea.org/forum/style_images/flags/United%20States.png)
*Format: mp3@CBR320kbps
*Size: 106MB

Tracklist:
1. D.I.Y. Till We Die! 02:42
2. Kegs R 4 Kids 02:35
3. I Don't Wanna Go Out with You 01:48
4. You Can't Kill Joey Ramone 02:23
5. Thanks for the Mammaries 02:19
6. Everybody Hates the United States 02:10
7. P.O. Box 33046 02:46
8. Endless Bummer 02:43
9. Shut Up and Pour Me a Drink 02:59
10. High School Girlz 02:57
11. Let Me See Your Driver's License 02:03
12. Lois Lane 02:30
13. Achy Breaky Skull 02:18
14. Ray 03:00
15. This Is Your Brain on Drugs 02:17
16. Nightmare Theater 02:38
17. F.F. Sucks the World 02:44
18. Action (Sweet cover song) 02:30
******************************
Total playing time: 45:22

Preview 1

Extended info
Thanks to the original uploader.
Ramones influenced punk rock.
https://en.wikipedia.org/wiki/Sloppy_Seconds_(band)


Technical info
(IMG:https://metalarea.org/images/spectrogram/2019_Mar/a13c9260d88e3c60a2c3dbd534687d61.png)
Input File: 01 D.I.Y. Til we Die!.mp3
Channels : 2
Sample Rate : 44100
Precision : 16-bit
Duration : 00:02:42.88 = 7183008 samples = 12216 CDDA sectors
File Size : 6.64M
Bit Rate : 326k
Sample Encoding: MPEG audio (layer I, II or III)
Comments :
Title=D.I.Y. Till We Die!
Artist=Sloppy Seconds
Album=Endless Bummer
Tracknumber=1
Year=2008
Genre=Pop Punk



Register


Thanks:
(1) gwar,
Go to the top of the page
  Insert nick Quick quote
+Quote Post

Reply to this topicStart new topic
1 User(s) are reading this topic (1 Guests and 0 Anonymous Users)
0 Members:

 



- Lo-Fi Version Support form
Copyrights and abuse reports form
Time is now: 7th June 2020 - 11:08:29